アットウィキロゴ
DUAL STRIKER
Mayumi Morinaga,Fernweh by BEMANI Sound Team "L.E.D. & HuΣeR"

BASIC

Level: 4
BPM: 185
Notes: 324

1
口口口口 |----|
口口口口 |----|
口口口口 |----|
口口口口 |----|
2
口口口口 |----|
口口口口 |----|
口口口口 |----|
口口口口 |----|
3
口口口口 |①-②-|
①①②② |----|
口口口口 |----|
口口口口 |----|
4
口口口口 |----|
口口口口 |----|
口①①口 |----|
口口口口 |--①-|
5
口口口口 |--①-|
①①②② |②---|
口口口口 |----|
口口口口 |----|
6
口口口口 |----|
口口口口 |----|
口口口口 |----|
口口口口 |----|
7
口口口口 |①-②-|
口口口口 |----|
①①②② |----|
口口口口 |----|
8
口口口口 |----|
口口口口 |----|
口口口口 |----|
口①①口 |--①-|
9
口口口口 |--①-|
口口口口 |②---|
①①②② |----|
口口口口 |----|
10
口口口口 |----|
口口口口 |----|
口口口口 |----|
口口口口 |----|
11
口口口口 |①--②|
口②⑤口 |--③-|
口口口口 |④--⑤|
①④③⑥ |--⑥-|
12
口口口口 |①--②|
口②口口 |--③-|
口口口口 |④---|
①④③口 |----|
13
口口口口 |①--②|
口⑤②口 |--③-|
口口口口 |④--⑤|
⑥③④① |--⑥-|
14
④口口口 |①---|
口③口口 |②---|
口口②口 |③---|
口口口① |④---|
15
口口口口 |①--②|
口⑤②口 |--③-|
口口口口 |④--⑤|
⑥③④① |--⑥-|
16
口口口口 |①--②|
口口②口 |--③-|
口口口口 |④---|
口③④① |----|
17
口口口口 |①--②|
口②⑤口 |--③-|
口口口口 |④--⑤|
①④③⑥ |--⑥-|
18
口口口口 |①--②|
⑤②口口 |--③-|
口口口口 |④---|
①④③口 |⑤---|
19
口①口口 |①---|
口口②口 |----|
口口口口 |②---|
口口口口 |----|
20
口口口口 |①---|
口口口口 |----|
口口口① |----|
口口口口 |----|
21
口口①口 |①---|
口②口口 |----|
口口口口 |②---|
口口口口 |----|
22
口口口口 |①---|
口口口口 |----|
①口口口 |----|
口口口口 |----|
23
②口口口 |①---|
口口口口 |----|
口①①口 |②---|
口口口口 |----|
24
口口口口 |①---|
口①口口 |----|
口口②口 |②---|
口口口口 |----|
25
口口口口 |①---|
口口口口 |----|
口口口口 |②---|
口②②① |----|
26
口口口口 |①---|
口②②口 |----|
口①①口 |②---|
口口口口 |----|
27
①口口口 |①---|
口口口② |②---|
③口口口 |③---|
口口口④ |④---|
28
口口①口 |①---|
口②口口 |②---|
口口③口 |③---|
口④口口 |④---|
29
口①口口 |①---|
口口②口 |②---|
口③口口 |③---|
口口④口 |④---|
30
④口口④ |①---|
③口口③ |②---|
②口口② |③---|
①口口① |④---|
31
口口口口 |①---|
口①①口 |----|
口口口口 |②---|
②口口口 |----|
32
口口口口 |①---|
口②②口 |----|
口①口口 |②---|
口口口口 |----|
33
①口口① |①---|
口口口口 |----|
口口口口 |----|
口口口口 |----|
34
口口①口 |①---|
口②口口 |②---|
口口③口 |③---|
口④口口 |④---|
35
①②口口 |①---|
口口口口 |②---|
口口口口 |----|
口口口口 |----|
36
口口口④ |①---|
口口口③ |②---|
口口口② |③---|
口口口① |④---|
37
口口口口 |①---|
口口口口 |②---|
①②口口 |----|
口口口口 |----|
38
口口①口 |①---|
口口②口 |②---|
口口③口 |③---|
口口④口 |④---|
39
口口口口 |①---|
①②口口 |②---|
口口口口 |----|
口口口口 |----|
40
口口口④ |①---|
口口口③ |②---|
口口口② |③---|
口口口① |④---|
41
口口口口 |①---|
④①①口 |②---|
口②②口 |③---|
口③③口 |④---|
42
口口①口 |①---|
口②口口 |②---|
口口③口 |③---|
口④口口 |④---|
43
口口口口 |①---|
②②①① |----|
口口口口 |②---|
口口口口 |----|
44
口口④口 |①---|
口口口③ |②---|
口口②口 |③---|
口口口① |④---|
45
口口口口 |①---|
口口口口 |----|
①①②② |②---|
口口口口 |----|
46
口④口口 |①---|
③口口口 |②---|
口②口口 |③---|
①口口口 |④---|
47
口口口口 |①---|
口口口口 |----|
口口①① |②---|
口②②口 |----|
48
口口口口 |①---|
口②②口 |----|
口①①口 |②---|
口口口口 |----|
49
①②②① |①---|
口口口口 |----|
口口口口 |②---|
口口口口 |----|
50
口口口口 |----|
口口口口 |----|
口口口口 |----|
口口口口 |----|
51
②口口口 |①---|
口①①口 |----|
口①①口 |②---|
口口口口 |----|
52
口口口① |①---|
②口口口 |----|
口口口口 |②---|
口口口口 |----|
53
口口口口 |①---|
口口口① |----|
②口口口 |②---|
口口口口 |----|
54
口口口口 |①---|
口口口口 |----|
口口口① |②---|
②口口口 |----|
55
口口口② |①---|
口①①口 |----|
口①①口 |②---|
口口口口 |----|
56
①口口口 |①---|
口口口② |----|
口口口口 |②---|
口口口口 |----|
57
口口口口 |①---|
①口口口 |----|
口口口② |②---|
口口口口 |----|
58
口口口口 |①---|
口口③③ |----|
①口②② |②---|
口口口口 |③---|
59
口口①① |①---|
②②口口 |----|
口口口口 |②---|
口口口口 |----|
60
口口口口 |①---|
口口口口 |②---|
口口②口 |③---|
口③口① |----|
61
①①口口 |①---|
口口②② |----|
口口口口 |②---|
口口口口 |----|
62
口口口口 |①---|
口口口口 |②---|
口②④④ |③---|
①口③口 |④---|
63
口口口③ |①---|
②②①① |----|
口口口口 |②---|
口口口口 |③---|
64
口①口口 |①---|
口口②口 |②---|
口③口口 |③---|
口口④口 |④---|
65
④口口口 |①---|
③口口口 |②---|
②口口口 |③---|
①口口口 |④---|
66
口口口④ |①---|
口口口③ |②---|
口口口② |③---|
口口口① |④---|
67
口①口口 |①---|
口②口口 |②---|
口③口口 |③---|
口口口口 |----|
68
口口①口 |①---|
口口②口 |②---|
口口③口 |③---|
口口口口 |----|
69
口口口口 |①---|
①口口口 |②---|
②口口口 |③---|
③口口口 |----|
70
口口口口 |①---|
口口口① |②---|
口④④② |③---|
口口口③ |④---|
71
口①①口 |①---|
口②②口 |----|
口口口口 |②---|
口口口口 |----|
72
口口口口 |①---|
口口口口 |----|
①口口① |②---|
②口口② |----|
73
口口口口 |①---|
口①①口 |----|
口①①口 |----|
口口口口 |----|
74
口口口口 |①---|
口④口口 |②---|
口口③口 |③---|
①口口② |④---|
75
①①口口 |①---|
口④③② |②---|
口口口口 |③---|
口口口口 |④---|
76
口口口口 |①---|
口口口口 |②---|
①②③④ |③---|
口口口口 |④---|
77
口口口口 |①---|
口口口口 |②---|
口口口口 |③---|
④③②① |④---|
78
①②③④ |①---|
口口口口 |②---|
口口口口 |③---|
口口口口 |④---|
79
口口口口 |①---|
口②口④ |②---|
①口③口 |③---|
口口口口 |④---|
80
口口口口 |①---|
①口③口 |②---|
口②口④ |③---|
口口口口 |④---|
81
口②口④ |①---|
口口口口 |②---|
口口口口 |③---|
①口③口 |④---|
82
①口口口 |①---|
口②口口 |②---|
口口③口 |③---|
口口口④ |④---|
83
②②口口 |①---|
口口③③ |②---|
口④口口 |③---|
①口口口 |④---|
84
口口口口 |①---|
④口口口 |②---|
口口③③ |③---|
②口①① |④---|
85
口口①① |①---|
口②③④ |②---|
口口口口 |③---|
口口口口 |④---|
86
口口口口 |①---|
口口口口 |②---|
①②③④ |③---|
口口口口 |④---|
87
口①①口 |①---|
口口口口 |----|
口口口口 |----|
口口口口 |----|
88
口口口口 |①---|
口①①口 |----|
口口口口 |----|
口口口口 |----|
89
口口口口 |①---|
口口口口 |----|
口①①口 |----|
口口口口 |----|
90
③③③③ |①---|
口口口口 |----|
②口口② |②---|
口①①口 |③---|

accuracy: 100%
最終更新:2023年07月11日 21:26