アットウィキロゴ
DUAL STRIKER
Mayumi Morinaga,Fernweh by BEMANI Sound Team "L.E.D. & HuΣeR"

ADVANCED

Level: 7
BPM: 185
Notes: 525

1
口口口口 |----|
口口口口 |----|
口口口口 |----|
口口口口 |----|
2
口口口口 |----|
口口口口 |----|
口口口口 |----|
口口口口 |----|
3
①口口② |①-②-|
①口口② |----|
口口口口 |----|
口口口口 |----|
4
口口口口 |----|
口口口口 |----|
口①①口 |----|
口口口口 |--①-|
5
①口口② |--①-|
①口口② |②---|
口口口口 |----|
口口口口 |----|
6
口口口口 |----|
口口口口 |----|
口口口口 |----|
口口口口 |----|
7
③口口口 |①-②-|
口口口口 |----|
口①②口 |③---|
口①②口 |----|
8
口口口口 |----|
口口口口 |----|
口①①口 |----|
口口口口 |--①-|
9
①口口② |--①-|
①口口② |②---|
口口口口 |----|
口口口口 |----|
10
口口口口 |----|
口口口口 |----|
口口口口 |----|
口口口口 |----|
11
②⑤口口 |①--②|
口口口口 |--③-|
⑥③口口 |④--⑤|
口口①④ |--⑥-|
12
口口口④ |①--②|
②⑤口口 |--③-|
口口口⑥ |④-⑤-|
⑦③①口 |⑥-⑦-|
13
②⑤口口 |①--②|
口口口口 |--③-|
⑥③口口 |④--⑤|
口口①④ |--⑥-|
14
⑤口口④ |①--②|
②⑦⑥口 |--③-|
口口口口 |④-⑤-|
口③①口 |⑥-⑦-|
15
口⑤口口 |①--②|
②口口② |--③-|
⑥③口口 |④--⑤|
口口①④ |--⑥-|
16
口口口④ |①--②|
②⑤口口 |--③-|
口口口⑥ |④-⑤-|
⑦③①口 |⑥-⑦-|
17
②⑤口口 |①--②|
口口口口 |--③-|
⑥③口口 |④--⑤|
口口①④ |--⑥-|
18
⑤口口④ |①--②|
②口口口 |--③-|
口⑦⑥口 |④-⑤-|
口③①口 |⑥-⑦-|
19
口口④④ |①---|
口②口口 |②-③-|
口口口③ |--④-|
口口①① |----|
20
①①口口 |①---|
口口口口 |②-③-|
口口②口 |----|
口③口④ |④---|
21
④④口口 |①---|
口口②口 |②-③-|
③口口口 |--④-|
①口口口 |----|
22
口口①① |①---|
口口口④ |②-③-|
口②口口 |----|
口口③口 |④---|
23
口②①口 |①---|
②口口口 |----|
口口口口 |②---|
口口口口 |----|
24
口口口口 |①---|
口口①口 |----|
口①口② |②---|
口口②口 |----|
25
口口口口 |①---|
口口口口 |----|
①②②口 |②---|
口①口口 |----|
26
口②②口 |①---|
口①①口 |----|
口口口口 |②---|
口口口口 |----|
27
①口口① |①-②-|
口口⑥⑥ |③-④-|
口④③口 |⑤---|
口②⑤口 |⑥---|
28
口口⑤⑤ |--①-|
口口口口 |②-③-|
①口口④ |④---|
③口口② |⑤---|
29
口口⑤⑤ |--①-|
口①④⑤ |②-③-|
口③②口 |④---|
口口口口 |⑤---|
30
①①口口 |①---|
①④⑤口 |②---|
②口口③ |③---|
②②③③ |④-⑤-|
31
①口④④ |--①-|
口口口口 |②-③-|
口口②口 |④---|
口③口口 |----|
32
口口口口 |①---|
口口①① |----|
口口②② |②---|
口口口口 |----|
33
口口口口 |①---|
口口口口 |----|
口口口口 |----|
口口①① |----|
34
口①口口 |①---|
①口②口 |②---|
口③④② |③---|
③口口④ |④---|
35
①口口② |①---|
①口口② |②---|
口口口口 |----|
口口口口 |----|
36
④口口口 |--①-|
⑤③口口 |②-③-|
②⑤口口 |④---|
口①口口 |⑤---|
37
口口②口 |①---|
口口口① |②---|
口口口② |----|
口口①口 |----|
38
①口口口 |--①-|
⑤②口口 |②-③-|
③⑤口口 |④---|
口④口口 |⑤---|
39
口口口口 |①---|
口口②① |②---|
口口①口 |----|
口口口② |----|
40
③④口口 |--①-|
⑤②口口 |②-③-|
①⑥口口 |④-⑤-|
⑦口口口 |⑥-⑦-|
41
②口①口 |①---|
口③口③ |②---|
③⑤③口 |③---|
口①④② |④-⑤-|
42
口②口③ |①-②-|
④口①口 |③-④-|
⑥口口⑤ |⑤---|
⑥口口⑤ |⑥---|
43
④口③口 |①---|
口③②⑤ |②---|
口②①口 |③---|
口①口口 |④-⑤-|
44
口口口⑥ |①-②-|
口⑤口口 |③-④-|
口③④口 |⑤---|
口①②口 |⑥---|
45
口口⑤口 |①---|
口④口口 |--②-|
①口口口 |③---|
口②③口 |④-⑤-|
46
①④口口 |①-②-|
口口⑤② |③---|
③⑥口口 |④-⑤-|
口口⑦口 |⑥-⑦-|
47
口口②口 |①---|
口口口③ |----|
③口口口 |②---|
①②口口 |③---|
48
口②口口 |①---|
①④③口 |②---|
口③④① |③---|
口口②口 |④---|
49
②②口① |①---|
口口口① |--②-|
①口口口 |③---|
①口③③ |----|
50
口口口口 |----|
口口口口 |----|
口口口口 |----|
口口口口 |----|
51
②口口③ |①-②-|
⑥口口口 |③-④-|
⑤①①口 |⑤-⑥-|
④口口⑦ |--⑦-|
52
口⑥口口 |①-②-|
口③⑦② |③-④-|
口⑤④① |--⑤-|
口口口口 |⑥-⑦-|
53
①口⑥口 |--①-|
口⑤口② |②-③-|
③口⑥口 |④-⑤-|
口口口④ |--⑥-|
54
③①口② |----|
③②②③ |①---|
②①口③ |②---|
口口口口 |③---|
55
⑦③⑥口 |①-②-|
口口口口 |③-④-|
口⑤④口 |⑤-⑥-|
口①②口 |--⑦-|
56
口口口③ |①-②-|
口①②⑦ |③-④-|
口口口⑥ |--⑤-|
④口口⑤ |⑥-⑦-|
57
⑤⑤口口 |①---|
口口④口 |--②-|
③①口口 |③-④-|
口口②口 |⑤---|
58
口口口口 |----|
②①口口 |----|
①②②① |①---|
口口①② |②---|
59
口口口② |①---|
口口①① |--②-|
口口口口
①①口口

口③口口
口口口口
口口口口 |③---|
④口口口 |--④-|
60
①口口⑤ |①--②|
口②口口 |--③-|
口④③口 |④---|
口口口口 |--⑤-|
61
口口①口 |①---|
口口口口 |--②-|
口口口口 |③---|
②③口④ |--④-|
62
⑤⑤口① |①--②|
口口②口 |--③-|
口③④口 |④---|
口口口口 |⑤---|
63
口口④口 |①---|
口④口口 |--②-|
②口口③ |③---|
口口①① |④---|
64
③①口② |①---|
②口①③ |②---|
口口口口 |③---|
口④④口 |--④-|
65
口①②口 |--①-|
口③③口 |②---|
口①②口 |----|
口口口口 |--③-|
66
④①①④ |--①-|
口口口口 |②-③-|
②口口③ |④---|
②⑤⑤③ |⑤---|
67
口③②口 |①-②-|
口⑤口口 |③-④-|
口①④口 |⑤---|
⑥口口⑦ |⑥-⑦-|
68
口口口① |--①-|
②口口④ |--②-|
口口⑤口 |③---|
口③口口 |④-⑤-|
69
口③口口 |①---|
②①④口 |②-③-|
⑤口口⑥ |④---|
⑤口口⑥ |⑤-⑥-|
70
②口④口 |--①-|
口④口口 |--②-|
口①①口 |③---|
口口③口 |④---|
71
口①口口 |①---|
②口①③ |--②-|
口④口口 |③---|
口④口口 |--④-|
72
②⑤⑥③ |①--②|
口④④口 |--③-|
⑤口①⑥ |④---|
口口①口 |⑤-⑥-|
73
口③口口 |--①-|
①③口② |②---|
口③口口 |----|
口①②口 |--③-|
74
④口①③ |--①-|
④口①③ |②---|
口口①口 |③---|
②②口口 |④---|
75
口口口口 |①---|
口口口口 |----|
口口口口 |----|
口口①① |----|
76
⑤口④口 |①-②-|
口③口⑥ |③-④-|
⑦口②口 |⑤-⑥-|
口①口⑧ |⑦-⑧-|
77
口⑦⑧口 |①-②-|
口⑤⑥口 |③-④-|
口③④口 |⑤-⑥-|
口①②口 |⑦-⑧-|
78
①口口② |①-②-|
③口口④ |③-④-|
⑤口口⑥ |⑤-⑥-|
⑦口口⑧ |⑦-⑧-|
79
①②③④ |①-②-|
⑤⑥⑦⑧ |③-④-|
口口口口 |⑤-⑥-|
口口口口 |⑦-⑧-|
80
口口口口 |①-②-|
口口口口 |③-④-|
①②③④ |⑤-⑥-|
⑤⑥⑦⑧ |⑦-⑧-|
81
④③②① |①-②-|
⑧⑦⑥⑤ |③-④-|
口口口口 |⑤-⑥-|
口口口口 |⑦-⑧-|
82
⑦⑤③① |①-②-|
口口口口 |③-④-|
口口口口 |⑤-⑥-|
②④⑥⑧ |⑦-⑧-|
83
口③②③ |①---|
口口口② |②---|
②口口口 |③---|
①②口口 |----|
84
③口口口 |①---|
①口①口 |--②-|
③口口口 |----|
口②口② |③---|
85
口口口① |①---|
口口口口 |----|
口口口① |----|
口口口口 |----|
86
②口口④ |①--②|
口⑤口口 |--③-|
口③口⑥ |④-⑤-|
口⑦①口 |⑥-⑦-|
87
口①①口 |①---|
口口口口 |----|
口口口口 |----|
口口口口 |----|
88
口口口口 |----|
口口口口 |----|
口口口口 |----|
口口口口 |----|
89
⑤口口① |①-②-|
口⑥②口 |③-④-|
口③⑦口 |⑤-⑥-|
④口口⑧ |⑦-⑧-|
90
口⑤⑤口 |①-②-|
口口口口 |③-④-|
③⑥⑥④ |⑤--⑥|
口①②口 |----|

accuracy: 100%
最終更新:2023年07月11日 23:37