アットウィキロゴ
DUAL STRIKER
Mayumi Morinaga,Fernweh by BEMANI Sound Team "L.E.D. & HuΣeR"

EXTREME

Level: 10.4
BPM: 185
Notes: 913

1
口口口口 |----|
口口口口 |----|
口口口口 |----|
口口口口 |----|
2
口口口口 |----|
口口口口 |----|
口口口口 |----|
口①②③ |---①②③|
3
①⑥口② |①-②-|
①⑤⑧② |③-④-|
口④⑦口 |⑤-⑥-|
③口口口 |⑦-⑧-|
4
口口口口 |①-②-|
③⑧⑧⑥ |③-④-|
②⑦口⑤ |⑤-⑥-|
口①④口 |⑦-⑧-|
5
①①②② |--①-|
⑤口口⑦ |②-③-|
④口口⑥ |④-⑤-|
口③口口 |⑥-⑦-|
6
口口口口 |①-②-|
⑧③⑥口 |③-④-|
⑦②⑤口 |⑤-⑥-|
①口口④ |⑦-⑧-|
7
②②①① |①-②-|
口口口口 |③-④-|
口口口④ |⑤---|
⑤⑤③口 |----|
8
口口④口 |①-②-|
口口③口 |③-④-|
口口②口
口口口①

口口口口
口⑦口口
口⑥口⑧ |⑤-⑥-|
⑤口口⑧ |⑦-⑧-|
9
①①②② |--①-|
⑤口口⑦ |②-③-|
④口口⑥ |④-⑤-|
口③口口 |⑥-⑦-|
10
①⑪⑥口 |①-②-|
⑦②⑩口 |③-④-|
口⑨③⑧ |⑤⑥⑦⑧|
口⑤⑫④ |⑨⑩⑪⑫|
11
①口口口 |①--②|
口①口③ |③-④-|
①口②口
④口口口

⑧⑥口口
⑥⑧口口
口口口⑤ |⑤--⑥|
口⑤口⑦ |⑦-⑧-|
12
口口④① |①--②|
口口口③ |③-④-|
②①①口
②口口口

口⑤口口
⑧口⑥口
口⑩口⑤ |⑤-⑥-|
口口⑨⑦ |⑦⑧⑨⑩|
13
②口口① |①--②|
口口口③ |③-④-|
②口①口
口④口口

口口⑤口
口⑥口口
口⑧⑧⑤ |⑤--⑥|
⑥口口⑦ |⑦-⑧-|
14
①口口① |①---|
②口口② |②---|
口⑥⑦③ |③-④-|
④⑧口⑤ |⑤⑥⑦⑧|
15
③②②口 |①---|
②②②② |②-③-|
口口口口
口口①口

口口口口
口口口口
⑤⑤口④ |④--⑤|
④口⑦⑥ |⑥-⑦-|
16
⑩②口① |①--②|
②⑤口③ |③-④-|
口⑧⑨⑤ |⑤-⑥-|
⑥④口⑦ |⑦⑧⑨⑩|
17
口⑧①① |①--②|
②⑤口③ |③-④-|
②口口⑤ |⑤--⑥|
⑥⑥④⑦ |⑦-⑧-|
18
②⑩⑦① |①-②-|
④⑧口③ |③-④-|
⑫口口⑤ |⑤⑥⑦⑧|
口⑥⑪⑨ |⑨⑩⑪⑫|
19
③口④① |①---|
口口口④ |②-③-|
口②口口 |--④-|
口口口口 |----|
20
口口口口 |①---|
口①①口 |②-③-|
②口④口 |----|
口④口③ |④---|
21
口④口③ |①---|
④口口口 |②-③-|
口①口口 |--④-|
②口①口 |----|
22
口口口口 |①---|
口②③口 |②-③-|
口③②① |----|
④口①④ |④---|
23
①⑤②① |①---|
口②口口 |----|
②④口③ |②-③-|
口口口口 |④-⑤-|
24
口口口口 |①---|
口口口① |----|
口口①② |②---|
口①②② |----|
25
①①口口 |①---|
口②②口 |----|
①①③口 |②---|
口②②口 |--③-|
26
①④④① |①-②-|
④口③④ |--③-|
①②口① |④---|
口⑤口口 |⑤---|
27
①⑥口① |①-②-|
⑥口口口 |③-④-|
口口③⑤ |⑤---|
口口④② |⑥---|
28
口口⑥口 |①-②-|
口口①⑥ |③-④-|
②⑤口口 |⑤---|
④③口① |⑥---|
29
口口⑥⑤ |①-②-|
①①④口 |③-④-|
口口口③ |⑤---|
⑥口②口 |⑥---|
30
②①口口 |①---|
③⑤④口 |②---|
口④⑤口 |③---|
口①②③ |④-⑤-|
31
④口①口 |--①-|
④口口① |②-③-|
②口口口 |④---|
⑤②③③ |⑤---|
32
口①③口 |①---|
口①③口 |②---|
口②③口 |③---|
口④口口 |④---|
33
口口口口 |①---|
口口口① |②---|
口口口① |③---|
②④口③ |④---|
34
口②口口 |①---|
②③②③ |②---|
④①③① |③---|
④口①⑤ |④-⑤-|
35
⑦③口② |①---|
⑧④②口 |②---|
⑨⑤口口 |③④⑤⑥|
⑩⑥①口 |⑦⑧⑨⑩|
36
口④口② |①-②-|
⑦口③口 |③-④-|
口⑥⑤口 |⑤---|
口⑤⑥① |⑥-⑦-|
37
②口③⑦ |①---|
口①④⑧ |②---|
②口⑤⑨ |③④⑤⑥|
口口⑥⑩ |⑦⑧⑨⑩|
38
③⑥⑤口 |①-②-|
口④口口 |③-④-|
②⑥⑤口 |⑤---|
口①口口 |⑥---|
39
③⑦口② |①---|
④⑧①② |②---|
⑤⑨口口 |③④⑤⑥|
⑥⑩口① |⑦⑧⑨⑩|
40
口口④① |--①-|
口口②⑤ |②-③-|
口口⑥③ |④-⑤-|
口口口⑦ |⑥-⑦-|
41
②③口① |①---|
口口③⑤ |②---|
①③口② |③---|
④①②口 |④-⑤-|
42
④⑥⑤口 |①-②-|
口③⑤口 |③-④-|
口⑤②⑥ |⑤---|
口⑤⑥① |⑥---|
43
④口③③ |①---|
③②⑤② |②---|
②口①口 |③---|
①口口① |④-⑤-|
44
⑥⑥⑤口 |①-②-|
⑤⑤口⑦ |③-④-|
③口④⑥ |⑤---|
①口口② |⑥-⑦-|
45
⑤口口⑤ |①---|
④口④口 |②-③-|
②口⑥口 |④---|
①口①③ |⑤-⑥-|
46
⑥①④口 |①-②-|
④②口⑤ |③---|
③③⑥口 |④-⑤-|
①口口⑦ |⑥-⑦-|
47
④③口口 |①---|
③④口口 |②---|
②口④③ |③---|
①①③④ |④---|
48
④③②① |①---|
③④①② |②---|
②①④③ |③---|
①②③④ |④---|
49
口②②① |①---|
②口①③ |--②-|
②①口③ |③---|
①③③口 |----|
50
口口口口 |①---|
⑥⑦⑧⑨ |----|
②③④⑤ |②③④⑤|
①口口口 |⑥⑦⑧⑨|
51
口口③口 |①-②-|
口口口口 |③-④-|
④口口口
①口口②

口口口口
口口口口
口口口口 |⑤-⑥-|
⑦⑤⑥口 |--⑦-|
52
口①口口 |①-②-|
口口口② |③-④-|
口④③口
口口口口

⑦⑦口口
口口⑦口
口口口⑥ |--⑤-|
口口口⑤ |⑥-⑦-|
53
⑥⑥口② |--①-|
①①口② |②-③-|
⑥④口口 |④-⑤-|
③口⑤口 |--⑥-|
54
口口口① |----|
②②③口 |①---|
口口①① |②---|
口②③③ |③---|
55
①③口② |①-②-|
口口口④ |③-④-|
①⑥⑤② |⑤-⑥-|
口口口⑦ |--⑦-|
56
口口①口 |①-②-|
口口口口 |③-④-|
②口口口
口③④口

口口⑦⑦
口⑦口口
口⑥口口 |--⑤-|
⑤口口口 |⑥-⑦-|
57
③口⑦⑦ |①-②-|
③口⑤口 |③-④-|
①口②② |⑤-⑥-|
口④口⑥ |⑦---|
58
①⑦口口 |--①②|
口②⑦口 |③④⑤⑥|
③⑥口⑧ |⑦---|
⑤④⑧口 |⑧---|
59
①口①口 |①--②|
③①口口 |③-④⑤|
口⑤②口
④口口口

⑨口口口
口口⑥口
⑧口口口 |⑥--⑦|
口口口⑦ |⑧-⑨-|
60
口③口口 |①--②|
③②口口 |--③-|
口口②①
口口①口

⑥口⑤口
口口⑦口
⑧口口口 |④-⑤-|
口④⑨④ |⑥⑦⑧⑨|
61
口口口⑨ |①--②|
⑧⑥口② |③-④⑤|
口③⑤⑦ |⑥--⑦|
①口口④ |⑧-⑨-|
62
口口③口 |①--②|
口口②③ |--③-|
①②口口
口①口口

⑤⑦口⑥
口口口口
⑨口④口 |④-⑤-|
④口⑧口 |⑥⑦⑧⑨|
63
口口口口 |①--②|
口④口③ |③-④-|
口②口①
口④口①

口⑦⑤⑦
口口口口
口口⑤口 |⑤--⑥|
⑥口口⑧ |⑦-⑧-|
64
②⑥口口 |①--②|
①⑧①⑦ |③-④-|
口③④③ |⑤--⑥|
⑤⑧⑤⑦ |⑦-⑧-|
65
②口②① |①-②-|
口口口口 |③-④-|
③④③口
口口口口

口⑦口⑦
口口⑤口
口口口口 |⑤---|
⑥口口口 |⑥-⑦-|
66
⑨口⑧口 |①②③④|
①⑤⑩④ |⑤⑥⑦⑧|
⑨⑦⑥口 |⑨---|
口③⑩② |⑩---|
67
口①口① |①-②③|
口口口② |④-⑤-|
口④③口
口口口⑤

口口⑨⑨
⑥⑥口口
口口口⑧ |⑥--⑦|
⑦口口口 |⑧-⑨-|
68
②②口口 |①-②③|
口口①口 |--④-|
口③④口
口口口口

口口口口
口⑥⑧口
口口口口 |⑤--⑥|
口⑤口⑦ |⑦-⑧-|
69
口⑧⑧口 |①-②-|
①口口⑤ |③-④-|
⑦②⑥口 |⑤--⑥|
③口④口 |⑦-⑧-|
70
口口口口 |①-②-|
④②②口 |③-④-|
口口口③
④①口口

口⑩⑦口
口口口⑤
⑥口口口 |⑤-⑥-|
口⑧⑨⑤ |⑦⑧⑨⑩|
71
⑦口口① |①--②|
④⑤⑥⑧ |③-④⑤|
口②①③ |⑥--⑦|
⑨口口⑨ |⑧-⑨-|
72
⑤①①⑥ |①--②|
⑤④④⑥ |--③-|
②口口③ |④---|
口②③口 |⑤-⑥-|
73
⑤口口⑤ |--①-|
口③③口 |②---|
口①②⑤ |③---|
①④④② |④-⑤-|
74
口③③口 |--①-|
①口口① |②---|
口②②口 |③---|
①④④口 |④---|
75
①口口① |①---|
口①①口 |----|
口口口口 |----|
口口口口 |----|
76
口⑦口⑥ |①②③④|
口口⑧② |⑤⑥⑦⑧|
①⑤口口
口③口④

⑪口⑩口
⑨⑬口⑯
⑮口⑫⑭ |⑨⑩⑪⑫|
口口口口 |⑬⑭⑮⑯|
77
⑨⑧⑦⑥ |①②③④|
⑪⑫⑬⑭ |⑤-⑥⑦|
口⑤⑩口 |⑧⑨⑩-|
①②③④ |⑪⑫⑬⑭|
78
⑦口口⑧ |①-②③|
⑬⑨⑩⑭ |④⑤⑥-|
①⑪⑫⑥ |⑦⑧⑨⑩|
⑤④③② |⑪⑫⑬⑭|
79
口④⑤口 |①-②③|
口口口口 |④-⑤⑥|
①口口⑥
口口③②

⑩口口⑧
口口⑨⑪
口口口口 |⑦-⑧⑨|
⑦口口⑫ |⑩-⑪⑫|
80
⑩口⑥⑧ |①-②③|
口④⑨⑪ |④-⑤⑥|
①口②⑤ |⑦-⑧⑨|
⑦口③⑫ |⑩-⑪⑫|
81
⑩口⑤⑧ |①-②③|
①口⑨⑪ |④-⑤⑥|
⑦④②⑥ |⑦-⑧⑨|
口口③⑫ |⑩-⑪⑫|
82
口①④⑥ |①-②-|
⑤口⑦口 |③-④-|
口⑧③口 |⑤-⑥⑦|
⑤②口⑨ |⑧-⑨-|
83
①口③口 |①--②|
口①口口 |③-④-|
②口②口
④口口口

⑧⑥口口
⑥⑧口口
口口口⑤ |⑤--⑥|
口⑤口⑦ |⑦-⑧-|
84
口口④① |①--②|
口口口③ |③-④-|
②①①口
②口口口

口⑤口口
⑧口⑥口
口⑩口⑤ |⑤-⑥-|
口口⑨⑦ |⑦⑧⑨⑩|
85
②口⑤① |①--②|
口⑦⑥③ |③-④-|
②⑨①⑤ |⑤⑥-⑦|
⑦④⑨⑧ |⑧-⑨-|
86
②④口① |①--②|
④口口③ |③-④-|
②口①口
口口口口

口口⑤口
口⑥⑦口
口⑧⑨⑤ |⑤-⑥-|
⑥⑩口⑦ |⑦⑧⑨⑩|
87
②口④口 |①--②|
口口口口 |--③-|
口口⑥③ |-④--|
⑤口①口 |⑤-⑥-|
88
②④⑦⑪ |①--②|
⑧口口③ |--③-|
口⑥口口 |④⑤⑥⑦|
⑩①⑤⑨ |⑧⑨⑩⑪|
89
口口口口 |①---|
口①口口 |----|
口②②口 |----|
口①口口 |②---|
90
④③②① |①②③④|
⑩⑪⑪⑨ |⑤⑥⑦⑧|
⑩⑪⑪⑨ |⑨--⑩|
⑧⑦⑥⑤ |--⑪-|

accuracy: 100%
最終更新:2023年07月11日 23:31