アットウィキロゴ
Hero Revealed
Yooh

BASIC

Level: 6
BPM: 170
Notes: 408

1
口口口口 |----|
口口口口 |----|
口口口口 |----|
口口口口 |----|
2
①口口② |①---|
口③④口 |②---|
口口口口 |③---|
口口口口 |④---|
3
口口口口 |①---|
口口口口 |②---|
①口口② |③---|
口③④口 |④---|
4
口①②口 |①---|
③口口④ |②---|
口口口口 |③---|
口口口口 |④---|
5
口口口口 |①---|
口口口口 |②---|
口①②口 |③---|
③口口④ |④---|
6
口①②口 |①-②-|
口③④口 |③-④-|
口⑤⑥口 |⑤-⑥-|
口⑦⑧口 |⑦-⑧-|
7
⑦口口⑧ |①-②-|
⑤口口⑥ |③-④-|
③口口④ |⑤-⑥-|
①口口② |⑦-⑧-|
8
口⑦⑧口 |①-②-|
口⑤⑥口 |③-④-|
口③④口 |⑤-⑥-|
口①②口 |⑦-⑧-|
9
口口口口 |----|
口口口口 |----|
口口口口 |----|
口口口口 |----|
10
①口口① |①---|
口②口口 |----|
口口口口 |②---|
口口口口 |----|
11
口口口口 |①---|
口口口口 |----|
口口②口 |②---|
口①口口 |----|
12
口①口口 |①---|
口口②口 |----|
口口口口 |②---|
口口口口 |----|
13
口口口口 |①---|
口口③口 |----|
口②口口 |②---|
口口①口 |③---|
14
①口口① |①---|
口口口口 |----|
②口口② |②---|
口口口口 |----|
15
口口口口 |①---|
口②②口 |----|
口口口口 |②---|
口①①口 |----|
16
口②②口 |①---|
口口口口 |----|
口口口口 |②---|
①口口① |----|
17
口口口口 |①---|
①③③② |②---|
口③③口 |③---|
口口口口 |----|
18
口①①口 |①---|
口口口口 |----|
口口口口 |②---|
口②②口 |----|
19
口口口口 |①-②-|
④③②① |③-④-|
口口口口 |----|
口口口口 |----|
20
口①①口 |①---|
②口口③ |②-③-|
④口口⑤ |④-⑤-|
⑥口口⑦ |⑥-⑦-|
21
口口④口 |--①-|
口③口口 |②-③-|
口口②口 |④---|
口①口口 |----|
22
①口口① |①---|
口口口口 |----|
口口口口 |②---|
②口口② |----|
23
口口口口 |①-②-|
口口口口 |③-④-|
④③②① |----|
口⑤⑤口 |⑤---|
24
口口口口 |①---|
①②③④ |②---|
口口口口 |③---|
口口口口 |④---|
25
口口口口 |①---|
④口口⑤ |②---|
①②③口 |③---|
①②③口 |④-⑤-|
26
口①①口 |①---|
口口口口 |----|
口口口口 |②---|
口②②口 |----|
27
口口口口 |①-②-|
口口口口 |③-④-|
④③②① |----|
口口口口 |----|
28
③口口② |①---|
⑤①①④ |②-③-|
⑦口口⑥ |④-⑤-|
口口口口 |⑥-⑦-|
29
口口①口 |--①-|
口②口口 |②-③-|
口口③口 |④---|
口④口口 |----|
30
口口口口 |①---|
②口口② |----|
口口口口 |②---|
①口口① |----|
31
口口口口 |①-②-|
口口口口 |③-④-|
①②③④ |----|
口口口口 |----|
32
口⑥⑦口 |①---|
口④⑤口 |②-③-|
口②③口 |④-⑤-|
①口口① |⑥-⑦-|
33
口口口口 |--①-|
口口口口 |②-③-|
①②③④ |④---|
口口口口 |----|
34
①口口① |①---|
口口口口 |----|
口口口口 |②---|
口②②口 |----|
35
口口口口 |①-②-|
④③②① |③-④-|
口口口口 |----|
口口口口 |----|
36
口②③口 |①---|
口口口口 |②-③-|
口①①口
口口口口

口口口口
口④⑤口
口⑥⑦口 |④-⑤-|
口口口口 |⑥-⑦-|
37
口④口口 |--①-|
口口口③ |②-③-|
②口口口 |④---|
口口①口 |----|
38
①口口① |①---|
口口口口 |----|
口口口口 |②---|
口②②口 |----|
39
口口口口 |①-②-|
口口口口 |③-④-|
④③②① |----|
口口口口 |----|
40
口口口⑦ |①---|
⑥①①⑤ |②-③-|
④口口③ |④-⑤-|
②口口口 |⑥-⑦-|
41
口口③口 |--①-|
口②口口 |②-③-|
④口①④ |④---|
口口口口 |----|
42
①口口② |①---|
口口口口 |②---|
口口口口 |③---|
③口口④ |④---|
43
口口口口 |①---|
口①①口 |----|
口口口口 |----|
口口口口 |----|
44
口口口口 |①---|
口口口口 |----|
口口口口 |----|
口①①口 |----|
45
口①①口 |①---|
口口口口 |----|
口口口口 |----|
口口口口 |----|
46
④口口③ |①---|
口口口口 |②---|
口口口口 |③---|
②口口① |④---|
47
口口口口 |①---|
口口口口 |----|
①口口① |----|
口口口口 |----|
48
口口口口 |①---|
①口口① |----|
口口口口 |----|
口口口口 |----|
49
口口口口 |①---|
口①①口 |----|
口①①口 |----|
口口口口 |----|
50
①③②④ |①---|
口口口口 |②---|
口口口口 |③---|
口口口口 |④---|
51
口口口口 |①-②-|
①②③④ |③-④-|
口口口口 |----|
口口口口 |----|
52
口口口口 |①---|
口口口口 |②-③-|
②⑥⑦③ |④-⑤-|
④①①⑤ |⑥-⑦-|
53
①②③④ |--①-|
口口口口 |②-③-|
口口口口 |④---|
口口口口 |----|
54
口口口口 |①---|
口口口口 |②---|
口口口口 |③---|
①③②④ |④---|
55
口口口口 |①-②-|
口口口口 |③-④-|
①②③④ |----|
口口口口 |----|
56
②⑥⑦③ |①---|
④①①⑤ |②-③-|
口口口口 |④-⑤-|
口口口口 |⑥-⑦-|
57
口口口口 |--①-|
口口口口 |②-③-|
①②③④ |④---|
口口口口 |----|
58
口口口口 |①---|
口①①口 |----|
口口口口 |②---|
②口口② |----|
59
①口口① |①---|
口口口口 |----|
口②②口 |②---|
口口口口 |----|
60
口口口口 |①---|
①口口① |----|
口口口口 |②---|
口②②口 |----|
61
口①①口 |①---|
口口口口 |----|
②口口② |②---|
口口口口 |----|
62
②口口① |①-②-|
④口口③ |③-④-|
⑥口口⑤ |⑤-⑥-|
⑧口口⑦ |⑦-⑧-|
63
口⑧⑦口 |①-②-|
口⑥⑤口 |③-④-|
口④③口 |⑤-⑥-|
口②①口 |⑦-⑧-|
64
⑧口口⑦ |①-②-|
⑥口口⑤ |③-④-|
④口口③ |⑤-⑥-|
②口口① |⑦-⑧-|
65
口口口口 |----|
口口口口 |----|
口口口口 |----|
口口口口 |----|
66
口①口① |①---|
③口口口 |--②-|
口口口② |③---|
③④口口 |--④-|
67
口口口口 |①-②-|
口③口① |③-④-|
④口②口 |----|
口⑤⑤口 |⑤---|
68
②口口③ |①---|
①④⑤① |②-③-|
⑥口口⑦ |④-⑤-|
口口口口 |⑥-⑦-|
69
口口口口 |--①-|
口口口口 |②-③-|
口③②口 |④---|
⑤④①⑤ |⑤---|
70
①口①口 |①---|
口口口③ |--②-|
②口口口 |③---|
口口④③ |--④-|
71
口口口口 |①-②-|
①口③口 |③-④-|
口②口④ |----|
口⑤⑤口 |⑤---|
72
⑥口口⑦ |①---|
①④⑤① |②-③-|
②口口③ |④-⑤-|
口口口口 |⑥-⑦-|
73
口口④口 |--①-|
口③口口 |②-③-|
口口②口 |④---|
口①口口 |----|
74
①口口① |①---|
①口②① |--②-|
③口口口 |③---|
④③口口 |--④-|
75
口口①口 |①-②-|
口②口口 |③-④-|
⑤口③⑤ |----|
口④口口 |⑤---|
76
②①①③ |①---|
口④⑦口 |②-③-|
口口⑤口 |④-⑤-|
口⑥口口 |⑥-⑦-|
77
⑤口口⑤ |--①-|
②口口③ |②-③-|
口④④口 |④---|
口口①口 |⑤---|
78
口①①口 |①---|
②①①口 |--②-|
②④口口 |③---|
口口③③ |--④-|
79
口口①① |①-②-|
②②口⑤ |③-④-|
口口③③ |----|
④④口⑤ |⑤---|
80
口①①口 |①---|
口口口口 |②-③-|
③口口口
②口口口

口口⑦口
口⑤⑥口
口④口口 |④-⑤-|
口口口口 |⑥-⑦-|
81
口口口口 |--①-|
口口口③ |②-③-|
②④④口 |④---|
口口①口 |----|
82
①口口① |①---|
口①①口 |----|
口口口口 |----|
口口口口 |----|

accuracy: 100%
最終更新:2023年07月12日 02:11