アットウィキロゴ
Hero Revealed
Yooh

ADVANCED

Level: 8
BPM: 170
Notes: 541

1
口口口口 |----|
口口口口 |----|
口口口口 |----|
口口口口 |----|
2
②口口口 |①---|
口口④口 |②---|
①口口口 |③---|
口口③口 |④---|
3
口口口④ |①---|
口②口口 |②---|
口口口③ |③---|
口①口口 |④---|
4
口口④口 |①---|
②口口口 |②---|
口口③口 |③---|
①口口口 |④---|
5
口②口③ |①---|
口④口⑤ |②-③-|
口①口口 |--④-|
口口口口 |⑤---|
6
①口口⑧ |①-②-|
③口口⑥ |③-④-|
⑤口口④ |⑤-⑥-|
⑦口口② |⑦-⑧-|
7
口⑦②口 |①-②-|
口⑤④口 |③-④-|
口③⑥口 |⑤-⑥-|
口①⑧口 |⑦-⑧-|
8
①⑨⑩② |①②③④|
③⑪⑫④ |⑤⑥⑦⑧|
⑤⑬⑭⑥ |⑨⑩⑪⑫|
⑦⑮⑯⑧ |⑬⑭⑮⑯|
9
口口口口 |----|
①口口② |----|
口口口口 |----|
①口口② |①-②-|
10
口①①口 |①---|
口口口口 |----|
口②口口 |②---|
口口口口 |----|
11
口口口口 |①---|
口口口② |--②-|
口口口口 |----|
③口①口 |③---|
12
①①口口 |①---|
口口②口 |----|
口口③口 |②---|
口口口口 |--③-|
13
口口口口 |----|
②口口口 |①---|
口口口口 |②---|
口①③口 |③---|
14
①①①① |①---|
口口口口 |----|
口②口口 |②---|
口口口口 |----|
15
口口口口 |①---|
口口口② |--②-|
口口口口 |----|
③口①口 |③---|
16
口口②② |①---|
①①口口 |----|
③口口③ |②---|
口口口口 |--③-|
17
②口口② |----|
②口④② |①---|
口③口口 |②---|
口①①口 |--③④|
18
口①②口 |①---|
口③口口 |--②③|
口口④口 |④---|
⑤口口⑤ |--⑤-|
19
口口口口 |①-②-|
①口⑥④ |③-④-|
口⑤口口 |----|
口②③口 |--⑤⑥|
20
口①③口 |①---|
⑦④口口 |②-③-|
⑤口口② |④-⑤-|
口⑥口口 |⑥-⑦-|
21
口口口口 |--①-|
口口口① |②-③-|
口口②口
③口口口

口口口口
口④④⑥
⑤口口口 |④---|
口口口口 |--⑤⑥|
22
①口口② |①---|
③口口口 |--②③|
口口口④ |④---|
口⑤⑤口 |--⑤-|
23
口①口口 |①-②-|
⑤口④⑤ |③-④-|
②口口口 |----|
口口口③ |⑤---|
24
口①①口 |①---|
口②②口 |②---|
口③③口 |③---|
口④④口 |④---|
25
口③②① |①---|
④口口⑤ |②---|
口③②① |③---|
④口口⑤ |④-⑤-|
26
①口口① |①---|
口①①口 |--②③|
口④③② |④---|
口⑤⑤口 |--⑤-|
27
④口口① |①-②-|
口口②口 |③-④-|
口③口口
口口口口

口口口口
口⑤⑥口
口口口口 |----|
口口口口 |--⑤⑥|
28
口口口④ |①---|
③⑦⑦① |②-③-|
口口⑤口 |④-⑤-|
②⑥口口 |⑥-⑦-|
29
口④④口 |--①-|
⑤⑥口① |②-③-|
口②口口 |④---|
口口③口 |--⑤⑥|
30
口口口口 |①---|
口口①口 |--②③|
口④③② |④---|
⑤口口⑤ |--⑤-|
31
口④①口 |①-②-|
口⑤⑥口 |③-④-|
③口口② |----|
口口口口 |--⑤⑥|
32
③⑦⑦⑤ |①---|
口口口① |②-③-|
⑥口口口 |④-⑤-|
口②④口 |⑥-⑦-|
33
④口口④ |--①-|
口④④① |②-③-|
口②⑥口 |④---|
⑤口③口 |--⑤⑥|
34
口口口口 |①---|
①口口② |--②③|
⑤③口⑤ |④---|
口口口④ |--⑤-|
35
口口口口 |①-②-|
①口⑥④ |③-④-|
⑤口口口 |----|
口②③口 |--⑤⑥|
36
①口③口 |①---|
⑦④口口 |②-③-|
⑤口口② |④-⑤-|
口⑥口口 |⑥-⑦-|
37
口口口口 |--①-|
口口口① |②-③-|
口口②口
③口口口

口口口口
口④④⑥
口⑤口口 |④---|
口口口口 |--⑤⑥|
38
口①②口 |①---|
③口口口 |--②③|
口口④口 |④---|
口⑤⑤口 |--⑤-|
39
口①口口 |①-②-|
口口④口 |③-④-|
②口⑥口 |----|
⑤口口③ |--⑤⑥|
40
③①口口 |①---|
口口口口 |②-③-|
口口口口
口②口口

口⑦⑦⑤
口口口口
⑥口口口 |④-⑤-|
口口④口 |⑥-⑦-|
41
③口口③ |--①-|
口②②口 |②-③-|
口④④口 |④---|
①口口① |----|
42
口口口口 |①---|
①口口② |②---|
口口口口 |③---|
④口口③ |④---|
43
口口口口 |①-②-|
口口口口 |③-④-|
④③②① |----|
口口口口 |----|
44
口①①口 |①---|
口①①口 |----|
口口口口 |----|
口口口口 |----|
45
口口口口 |①---|
口口口口 |----|
口口口口 |----|
①口口① |----|
46
①口口② |①---|
口口口口 |②---|
④口口③ |③---|
口口口口 |④---|
47
口口口口 |①-②-|
①②③④ |③-④-|
口口口口 |----|
口口口口 |----|
48
口②①口 |①---|
口口口口 |--②-|
口口口口 |----|
口①②口 |----|
49
口口口口 |①---|
口①①口 |----|
口①①口 |----|
口口口口 |----|
50
口口口口 |①---|
①口口② |②---|
口口口口 |③---|
④口口③ |④---|
51
口口口口 |①-②-|
口口口口 |③-④-|
④③②①
口口口口

口口口口
口口口口
口口⑥口 |----|
口⑤口口 |⑤-⑥-|
52
口③口口 |①---|
②①口口 |②-③-|
口口口口
口口口口

口口④口
口⑦口⑤
口口⑥口 |④-⑤-|
口口口口 |⑥-⑦-|
53
口口口口 |--①-|
口⑥⑤口 |②-③-|
④口口① |④---|
口③②口 |⑤-⑥-|
54
①口口② |①---|
口口口口 |②---|
④口口③ |③---|
口口口口 |④---|
55
口口口口 |①-②-|
④③②① |③-④-|
口口⑥口 |----|
口⑤口口 |⑤-⑥-|
56
口⑦口口 |①---|
⑤①③口 |②-③-|
⑥④口② |④-⑤-|
口口口口 |⑥-⑦-|
57
⑤⑥口口 |--①-|
口④④① |②-③-|
口口②口 |④---|
口③口口 |--⑤⑥|
58
口口①口 |①---|
⑤⑥口口 |--②③|
口口口口 |④---|
口④③② |--⑤⑥|
59
口口口口 |①---|
⑥口①口 |--②③|
⑤④③② |④---|
口口口口 |--⑤⑥|
60
①口口口 |①---|
口⑥口② |--②③|
口⑤口③ |④---|
口口口④ |--⑤⑥|
61
口①口口 |①---|
口口②口 |--②③|
口口③口
口口口口

口⑤⑥口
口口口口
口口口口 |④---|
口口④口 |--⑤⑥|
62
②口口① |①-②-|
④口口③ |③-④-|
⑥口口⑤ |⑤-⑥-|
⑧口口⑦ |⑦-⑧-|
63
口⑧⑦口 |①-②-|
口⑥⑤口 |③-④-|
口④③口 |⑤-⑥-|
口②①口 |⑦-⑧-|
64
⑧⑯⑮⑦ |①②③④|
⑥⑭⑬⑤ |⑤⑥⑦⑧|
④⑫⑪③ |⑨⑩⑪⑫|
②⑩⑨① |⑬⑭⑮⑯|
65
口口口口 |----|
①口口② |----|
口口口口 |----|
①口口② |①-②-|
66
①口②① |①---|
③①①口 |--②-|
口④④② |③---|
口③口口 |--④-|
67
口口口① |①-②-|
口②⑦口 |③-④-|
口⑥口③ |----|
⑤④口⑤ |⑤-⑥⑦|
68
口①③口 |①---|
④⑦⑦口 |②-③-|
口口⑥② |④-⑤-|
口⑤口口 |⑥-⑦-|
69
④②口④ |--①-|
口口口③ |②-③-|
①⑤⑤口 |④---|
口口口口 |⑤---|
70
④口②口 |①---|
口①①② |--②-|
③口口口 |③---|
口③口④ |--④-|
71
口口口① |①-②-|
口⑦②口 |③-④-|
⑤③⑥⑤ |----|
④口口口 |⑤-⑥⑦|
72
口口①口 |①---|
③⑦⑦④ |②-③-|
口口⑤口 |④-⑤-|
⑥②口口 |⑥-⑦-|
73
口④④① |--①-|
口口口口 |②-③-|
③⑦⑧② |④---|
口⑤⑥口 |⑤⑥⑦⑧|
74
口②口口 |①---|
②①口口 |--②-|
口口口③ |③---|
口④④③ |--④-|
75
①口口口 |①-②-|
⑤②⑦⑤ |③-④-|
口⑥③口 |----|
口口口④ |⑤-⑥⑦|
76
口①③口 |①---|
④⑦⑦口 |②-③-|
口⑤口② |④-⑤-|
⑥口口口 |⑥-⑦-|
77
⑤口③⑤ |--①-|
口口口口 |②-③-|
②④④口 |④---|
口口①口 |⑤---|
78
口口②口 |①---|
①口口① |--②-|
口口口②
口①①口

口口口口
口口口口
口③口口 |③---|
③④④口 |--④-|
79
口②口① |①-②-|
口口③口 |③-④-|
②④①③
④口口口

⑤口口⑤
口⑦口口
口口⑥口 |----|
口口口口 |⑤-⑥⑦|
80
口③①口 |①---|
③口口口 |②-③-|
口②口口
②口口口

⑦口⑦⑤
口口⑤口
口口口④ |④-⑤-|
口⑥④⑥ |⑥-⑦-|
81
口③口口 |--①-|
③口口② |②-③-|
④①②④ |④---|
①④④口 |----|
82
①口口① |①---|
口①①口 |----|
口①①口 |----|
口口口口 |----|

accuracy: 100%
最終更新:2023年07月12日 02:24