アットウィキロゴ
Hero Revealed
Yooh

EXTREME

Level: 10.6
BPM: 170
Notes: 923

1
口口口口 |----|
口口口口 |----|
口口口口 |----|
口口口口 |----|
2
⑤口⑥⑪ |①②③④|
⑫⑩④口 |⑤-⑥-|
⑧③⑨口 |⑦⑧⑨⑩|
①口②⑦ |⑪-⑫-|
3
口⑤⑪口 |①②③④|
⑫⑩④⑥ |⑤-⑥-|
⑧③⑨② |⑦⑧⑨⑩|
口①⑦口 |⑪-⑫-|
4
⑤口口⑪ |①②③④|
⑫⑩④⑥ |⑤-⑥-|
⑧③⑨② |⑦⑧⑨⑩|
①口口⑦ |⑪-⑫-|
5
口⑤⑧口 |①②③④|
口口④⑨ |⑤-⑥-|
口③口⑥ |⑦-⑧-|
⑦①②⑩ |⑨-⑩-|
6
①⑤⑥② |①-②-|
⑤①②⑥ |③-④-|
⑦③⑧④ |⑤-⑥-|
③⑦④⑧ |⑦-⑧-|
7
①口口③ |①-②-|
④口③口 |③-④-|
口①口②
④口②口

口⑤⑦口
口口口⑥
⑤⑧⑦口 |⑤-⑥-|
口⑧口⑥ |⑦-⑧-|
8
②⑦⑫① |①②③④|
⑨⑬⑭⑧ |⑤⑥⑦⑧|
⑥⑪⑩⑤ |⑨⑩⑪⑫|
④⑮③⑯ |⑬⑭⑮⑯|
9
口口口口 |----|
⑤①②⑥ |----|
⑤③④⑥ |①②③④|
口口口口 |⑤-⑥-|
10
口①①口 |①---|
口口口口 |----|
口②②口 |②---|
口口口口 |----|
11
口口口口 |①---|
②口①① |--②-|
②③口口 |----|
口③口口 |③---|
12
口①②① |①---|
②口口口 |----|
口③口③ |②---|
口口口口 |--③-|
13
口口口口 |----|
口②口口 |①---|
口口①口 |②---|
①口③口 |③---|
14
②①①④ |①---|
口口口口 |②---|
口③③口 |③---|
①口口③ |④---|
15
口②口口 |①---|
③口①① |②-③-|
③口口口
口①口口

口口口口
口口口口
口⑤口口 |④---|
口⑤④⑤ |⑤---|
16
②①口① |①---|
口口口口 |②---|
口口口口
①口口口

口口③④
③口口口
口⑤口⑤ |③---|
口口口③ |④-⑤-|
17
口②④③ |①---|
口③⑥口 |②---|
口口②⑤ |③---|
②①③口 |④-⑤⑥|
18
①①口口 |①---|
②口口③ |②-③④|
⑤口④口 |⑤---|
⑥⑤口⑦ |⑥-⑦-|
19
①口④① |①-②-|
③口②口 |③-④-|
口口③口
口口口口

口口口口
口口⑧口
⑤口口⑦ |⑤---|
⑥口口口 |⑥-⑦⑧|
20
①①③⑦ |①---|
②④口② |②-③-|
④⑤口口 |④-⑤-|
⑥口口⑥ |⑥-⑦-|
21
①口⑤口 |①-②-|
③口⑧② |③-④-|
⑤口③⑦ |⑤---|
⑥口④口 |⑥-⑦⑧|
22
①②④① |①-②-|
③④口⑤ |③-④⑤|
⑥⑦⑥口 |⑥-⑦-|
⑧⑨口⑨ |⑧-⑨-|
23
①②④① |①-②-|
③④②⑦ |③-④-|
⑤⑥③口 |⑤-⑥-|
⑦⑧口⑦ |⑦-⑧-|
24
①②口口 |①②③-|
口③口口 |④⑤⑥-|
口口⑤④
口口⑥口

口⑫口口
口口⑬口
⑦⑧口口 |⑦⑧⑨-|
⑩⑨口⑪ |⑩⑪⑫⑬|
25
①口①① |①---|
②②口② |②---|
口口口口
口口口口

口④口⑤
口口口口
③③③口 |③---|
④口⑤口 |④-⑤-|
26
①口口口 |①---|
②口口③ |②-③④|
⑤口④① |⑤---|
⑥①⑦⑤ |⑥-⑦-|
27
①④④① |①-②-|
③口②口 |③-④-|
口口③口
口口口口

口口口口
口口⑧口
⑤口口⑦ |⑤---|
⑥口口口 |⑥-⑦⑧|
28
①口③① |①---|
②口口② |②-③-|
口口口口
口口口口

口⑦口⑦
口④口口
④⑤口口 |④-⑤-|
⑥口口⑥ |⑥-⑦-|
29
①口⑤口 |①-②-|
③⑤⑧② |③-④-|
⑤口③⑦ |⑤---|
⑥口④口 |⑥-⑦⑧|
30
①口③① |①---|
②②口④ |②-③④|
⑤口⑤口 |⑤---|
⑥⑥口⑦ |⑥-⑦-|
31
①④④① |①-②-|
③③②口 |③-④-|
口口③口
口口口口

口口口口
口口⑧口
⑤口口⑦ |⑤---|
⑥⑥口口 |⑥-⑦⑧|
32
①口口① |①---|
②②口③ |②-③-|
口口口口
口口②口

口口⑤⑦
口口⑦口
④口口⑥ |④-⑤-|
⑥⑥口④ |⑥-⑦-|
33
①①⑤口 |①-②-|
③③⑧② |③-④-|
⑤⑤③⑦ |⑤---|
⑥⑥④口 |⑥-⑦⑧|
34
①口口① |①---|
②口口③ |②-③④|
⑤口④口 |⑤---|
⑥口⑦⑤ |⑥-⑦-|
35
①④④① |①-②-|
③口②口 |③-④-|
口口③口
口口口口

口口口口
口口⑧口
⑤口口⑦ |⑤---|
⑥口口口 |⑥-⑦⑧|
36
①口③① |①---|
②口口② |②-③-|
口口口口
口口口口

口⑦口⑦
口④口口
④⑤口口 |④-⑤-|
⑥口口⑥ |⑥-⑦-|
37
①口⑤口 |①-②-|
③⑤⑧② |③-④-|
⑤口③⑦ |⑤---|
⑥口④口 |⑥-⑦⑧|
38
①口③① |①---|
②口口④ |②-③④|
⑤口⑤口 |⑤---|
⑥口口⑦ |⑥-⑦-|
39
①④④① |①-②-|
③口②口 |③-④-|
口口③口
口口口口

口口口口
口口⑧口
⑤口口⑦ |⑤---|
⑥口口口 |⑥-⑦⑧|
40
①口口① |①---|
②口口③ |②-③-|
口口口口
口口②口

⑦口⑤⑦
口⑦⑦口
④口口⑥ |④-⑤-|
⑥口口④ |⑥-⑦-|
41
口③③口 |--①-|
①⑦⑥② |②-③-|
④④④④ |④---|
⑤①②口 |⑤-⑥⑦|
42
口口②① |①---|
③④口口 |②---|
口口口口 |③---|
口口口口 |④---|
43
口口口口 |①-②-|
口口口口 |③-④-|
④口口① |----|
口③②口 |----|
44
口口①口 |①-②-|
①②口口 |③-④-|
口④③① |----|
口①口口 |----|
45
口①②口 |①-②-|
③口口④ |③-④-|
①口口② |----|
口③④口 |----|
46
①②口口 |①---|
口口④③ |②---|
口口口口 |③---|
口口口口 |④---|
47
口口口口 |①-②-|
口口口口 |③-④-|
口②③口 |----|
①口口④ |----|
48
口①③口 |①---|
③②②① |②-③-|
①②②③ |----|
口③①口 |----|
49
口口口② |①---|
口①①口 |--②-|
口①①口 |----|
口口口② |----|
50
⑤口②④ |①-②-|
①⑦口⑧ |③-④-|
③⑨⑨口 |⑤-⑥⑦|
口⑥②④ |⑧-⑨-|
51
⑧⑤②④ |①-②-|
①⑨⑨口 |③-④-|
⑦口口口 |⑤-⑥⑦|
③⑥②④ |⑧-⑨-|
52
口口②④ |①-②-|
③口口口 |③-④-|
口①口口
口口②④

口⑤口口
口⑦口⑧
口⑨⑨口 |⑤-⑥⑦|
⑥口口口 |⑧-⑨-|
53
口⑤②④ |①-②-|
①⑧⑦⑪ |③-④-|
③口口⑨ |⑤-⑥⑦|
⑩⑥②④ |⑧⑨⑩⑪|
54
①③②④ |①-②-|
口口口口 |③-④-|
③①口口
口口②④

口口口口
⑤⑦⑤⑧
口⑨⑨口 |⑤-⑥⑦|
口⑥口口 |⑧-⑨-|
55
①③②④ |①-②-|
③⑤⑦⑤ |③-④-|
①⑨⑨⑧ |⑤-⑥⑦|
⑥口②④ |⑧-⑨-|
56
③口②④ |①-②-|
①③口口 |③-④-|
①口口口
口口②④

口⑨⑨口
口口⑦⑤
口⑧口⑤ |⑤-⑥⑦|
口⑥口口 |⑧-⑨-|
57
①口口⑥ |①-②-③-④--⑤--|
②⑤口⑦ |⑥-⑦-⑧-⑨--⑩--|
③口口⑧
④⑩口⑨

口⑭⑭口
口⑯⑬口
口⑫⑮口 |⑪-⑫-⑬-|
口口⑪口 |⑭-⑮⑯|
58
①口口② |①---|
口口③口 |--②③|
①④⑥④ |④---|
口口口⑤ |--⑤⑥|
59
口口口口 |①---|
口①②① |--②③|
口③口口
口口口口

口口口口
④⑥口口
⑤口口口 |④---|
④口口口 |--⑤⑥|
60
①口①口 |①---|
口口⑥② |--②③|
口口③⑤ |④---|
口④口④ |--⑤⑥|
61
口①口① |①---|
②口口口 |--②③|
口③口口
口口口口

口⑧口⑧
口口口⑤
⑥口口⑩ |④⑤⑥⑦|
④⑨④⑦ |⑧-⑨⑩|
62
③⑤⑧⑦ |①-②-|
②①①⑥ |③-④-|
④④②⑧ |⑤-⑥-|
③⑥⑤⑦ |⑦-⑧-|
63
③口口口 |①-②-|
①④②口 |③-④-|
④②①口
③口口口

口⑤⑥⑦
口口口⑥
口口⑧⑧ |⑤-⑥-|
口口⑤⑦ |⑦-⑧-|
64
⑦⑧⑩⑪ |①②③④|
⑥⑤⑨⑫ |⑤⑥⑦⑧|
④①⑬⑭ |⑨⑩⑪⑫|
③②⑯⑮ |⑬⑭⑮⑯|
65
口④①⑤ |----|
口②口口 |----|
口口③口 |①②③-|
④口⑤口 |④-⑤-|
66
①口③口 |①---|
②④口口 |②-③-|
④口口① |④---|
⑤①⑥④ |⑤-⑥-|
67
①②④① |①-②-|
③④②③ |③-④-|
口口①②
口③口④

口口口口
口口⑧口
⑤⑥口⑦ |⑤---|
⑥口口口 |⑥-⑦⑧|
68
①口③① |①---|
②口口③ |②-③-|
口口口口
口口口②

口④口⑦
口口口口
④⑤⑤⑥ |④-⑤-|
⑥口⑦口 |⑥-⑦-|
69
①口④⑥ |①-②-|
③②③④ |③-④-|
⑤⑤⑤口 |⑤---|
⑥口⑥② |⑥---|
70
①口③口 |①---|
②口④口 |②-③-|
④口口① |④---|
⑤①⑥④ |⑤-⑥-|
71
①③④② |①-②-|
③①口③ |③-④-|
口②②①
口④口④

口口口口
口⑥⑧口
⑤口口⑦ |⑤---|
⑥口⑥口 |⑥-⑦⑧|
72
①③口① |①---|
②口口③ |②-③-|
口口口口
口②口口

⑦口口⑦
口④口口
④⑤⑥口 |④-⑤-|
⑥口⑤口 |⑥-⑦-|
73
口口口口 |--①-|
口口口① |②-③-|
口口口口
口②口③

口⑦口⑥
④⑤④⑧
④④④口 |④---|
④口④口 |⑤⑥⑦⑧|
74
①口③口 |①---|
②④口口 |②-③-|
④口口① |④---|
⑤①⑥④ |⑤-⑥-|
75
①②④① |①-②-|
③④②③ |③-④-|
口口①②
口③口④

口口口口
口口⑧口
⑤⑥口⑦ |⑤---|
⑥口口口 |⑥-⑦⑧|
76
①口③① |①---|
②口口③ |②-③-|
口口口口
口口口②

口④口⑦
口口口口
④⑤⑤⑥ |④-⑤-|
⑥口⑦口 |⑥-⑦-|
77
①口④⑥ |①-②-|
③②③④ |③-④-|
⑤⑤⑤口 |⑤---|
⑥口⑥② |⑥---|
78
①②口口 |①-②-|
③④口口 |③-④-|
口口④①
口①口口

口口口口
口口⑤⑧
⑤⑥口口 |⑤-⑥-|
⑦⑧⑤口 |⑦-⑧-|
79
②②①④ |①-②-|
①④③口 |③-④-|
③口②③
口口④①

口⑫⑪口
⑩口口⑦
口⑥口口 |⑤⑥⑦⑧|
⑤⑧口⑨ |⑨⑩⑪⑫|
80
③口口口 |①---|
口②口口 |②-③-|
①口口①
③口②口

口口口⑤
⑦口④⑦
⑦⑥⑥⑦ |④-⑤-|
口④口⑤ |⑥-⑦-|
81
②①①③ |--①-|
⑧④⑤⑨ |②-③-|
⑧⑥⑦⑨ |④⑤⑥⑦|
④②③④ |⑧-⑨-|
82
口①①口 |①---|
口口口口 |----|
口口口口 |----|
口口口口 |----|

accuracy: 100%
最終更新:2023年07月12日 02:44