アットウィキロゴ
一途(映画『劇場版 呪術廻戦 0』主題歌)
(King Gnu)

BASIC

Level: 3
BPM: 160
Notes: 251

1
口口口口 |----|
口口口口 |----|
口口口口 |----|
口口口口 |----|
2
口口口口 |①---|
口口口口 |----|
口②口口 |②---|
口①口口 |----|
3
口②口口 |①---|
口①口口 |----|
口口口口 |②---|
口口口口 |----|
4
口口①口 |①---|
口口②口 |----|
口口口口 |②---|
口口口口 |----|
5
口口口口 |①---|
口口口口 |----|
口口①口 |②---|
口口②口 |----|
6
口口口口 |①---|
口口口口 |②---|
③口口④ |③---|
①口口② |④---|
7
③口口④ |①---|
①口口② |②---|
口口口口 |③---|
口口口口 |④---|
8
口①②口 |①---|
口③④口 |②---|
口口口口 |③---|
口口口口 |④---|
9
口口口口 |①---|
口口口口 |②---|
口①②口 |③---|
口③④口 |④---|
10
口口口口 |①---|
②口口口 |----|
①口口口 |②---|
口口口口 |----|
11
口口口口 |①---|
口口口② |----|
口口口① |②---|
口口口口 |----|
12
口口口口 |①---|
口②口口 |----|
口①口口 |②---|
口口口口 |----|
13
口口口口 |①---|
口口②口 |----|
口口①口 |②---|
口口口口 |----|
14
①①口口 |①---|
②②口口 |----|
口口口口 |②---|
口口口口 |----|
15
口口①① |①---|
口口②② |----|
口口口口 |②---|
口口口口 |----|
16
口①①口 |①---|
口②②口 |----|
口口口口 |②---|
口口口口 |----|
17
①口口① |①---|
口口口口 |----|
②口口② |②---|
口口口口 |----|
18
①①口口 |①---|
②②口口 |----|
口口口口 |②---|
口口口口 |----|
19
口口①① |①---|
口口②② |----|
口口口口 |②---|
口口口口 |----|
20
口①①口 |①---|
口②②口 |----|
口口口口 |②---|
口口口口 |----|
21
①口口① |①---|
口口口口 |----|
②口口② |②---|
口口口口 |----|
22
口口口口 |①---|
口①①口 |----|
口口口口
口口口口
23
口口口口 |①---|
口口口③ |②---|
口口②口 |③---|
口①口口 |----|
24
口口口口 |①---|
③口口口 |②---|
口②口口 |③---|
口口①口 |----|
25
口①①口 |①---|
②口口② |----|
口口口口 |②---|
口口口口 |----|
26
口口口口 |①---|
口口口口 |----|
口①①口 |②---|
②口口② |----|
27
口口口口 |①---|
口口口③ |②---|
口口②口 |③---|
口①口口 |----|
28
口口口口 |①---|
③口口口 |②---|
口②口口 |③---|
口口①口 |----|
29
口①①口 |①---|
②口口② |----|
口口口口 |②---|
口口口口 |----|
30
口口口口 |①---|
口口口口 |----|
口①①口 |②---|
②口口② |----|
31
①①口口 |①---|
②②口口 |----|
口口口口 |②---|
口口口口 |----|
32
口口①① |①---|
口口②② |----|
口口口口 |②---|
口口口口 |----|
33
口①①口 |①---|
口②②口 |----|
口口口口 |②---|
口口口口 |----|
34
①口口① |①---|
口口口口 |----|
②口口② |②---|
口口口口 |----|
35
①①口口 |①---|
②②口口 |----|
口口口口 |②---|
口口口口 |----|
36
口口①① |①---|
口口②② |----|
口口口口 |②---|
口口口口 |----|
37
口①①口 |①---|
口②②口 |----|
口口口口 |②---|
口口口口 |----|
38
①口口① |①---|
口口口口 |----|
②口口② |②---|
口口口口 |----|
39
口口口口 |①---|
口①①口 |----|
口口口口
口口口口
40
口口口口 |①---|
口口口③ |②---|
口口②口 |③---|
口①口口 |----|
41
口口口口 |①---|
③口口口 |②---|
口②口口 |③---|
口口①口 |----|
42
口①①口 |①---|
②口口② |----|
口口口口 |②---|
口口口口 |----|
43
口口口口 |①---|
口口口口 |----|
口①①口 |②---|
②口口② |----|
44
口口口口 |①---|
口口口③ |②---|
口口②口 |③---|
口①口口 |----|
45
口口口口 |①---|
③口口口 |②---|
口②口口 |③---|
口口①口 |----|
46
口①①口 |①---|
②口口② |----|
口口口口 |②---|
口口口口 |----|
47
口口口口 |①---|
口口口口 |----|
口①①口 |②---|
②口口② |----|
48
口口口口 |①---|
口口口口 |②---|
口③④口 |③---|
口①②口 |④---|
49
③③口口 |①---|
口①②口 |②---|
口口口口 |----|
口口口口 |③---|
50
②口①① |----|
口口口口 |①---|
口口口口 |----|
口口口口 |②---|
51
口口口口 |①---|
②口口① |②---|
④口口③ |③---|
口口口口 |④---|
52
口口口口 |①---|
口口口口 |②---|
口④③口 |③---|
口②①口 |④---|
53
口口③③ |①---|
口②①口 |②---|
口口口口 |----|
口口口口 |③---|
54
①①口② |----|
口口口口 |①---|
口口口口 |----|
口口口口 |②---|
55
口口口口 |①---|
①口口② |②---|
③口口④ |③---|
口口口口 |④---|
56
口口口口 |①---|
口口口口 |----|
口口口口 |----|
①口口口 |----|
57
口口口口 |①---|
口口口② |----|
口口口① |②---|
口口口口 |----|
58
口口口口 |①---|
口②口口 |----|
口①口口 |②---|
口口口口 |----|
59
口口口口 |①---|
口口②口 |----|
口口①口 |②---|
口口口口 |----|
60
口①口口 |①---|
口口②口 |②---|
口③口口 |③---|
口口④口 |④---|
61
口口口口 |----|
口①口口 |①---|
口口②口 |②---|
口③口口 |③---|
62
口口口口 |----|
口口口① |①---|
②口口口 |②---|
口口口③ |③---|
63
①①口口 |①---|
②②口口 |----|
口口口口 |②---|
口口口口 |----|
64
口口口口 |①---|
口②口口 |②---|
①口③口 |③---|
口④口口 |④---|
65
口口口口 |----|
口口①口 |①---|
口②口口 |②---|
口口③口 |③---|
66
口口口口 |----|
①口口口 |①---|
口口口② |②---|
③口口口 |③---|
67
口口①① |①---|
口口②② |----|
口口口口 |②---|
口口口口 |----|
68
口口口口 |①---|
口口②口 |②---|
口③口① |③---|
口口④口 |④---|
69
口口口口 |----|
口①口口 |①---|
口口②口 |②---|
口③口口 |③---|
70
口口口口 |----|
口口口① |①---|
②口口口 |②---|
口口口③ |③---|
71
①①口口 |①---|
②②口口 |----|
口口口口 |②---|
口口口口 |----|
72
口口口口 |①---|
口②口口 |②---|
①口③口 |③---|
口④口口 |④---|
73
口口口口 |----|
口口①口 |①---|
口②口口 |②---|
口口③口 |③---|
74
口口口口 |----|
①口口口 |①---|
口口口② |②---|
③口口口 |③---|
75
口口①① |①---|
口口②② |----|
口口口口 |②---|
口口口口 |----|
76
口口口口 |①---|
口口口口 |----|
口①①口 |----|
口口口口 |----|

accuracy: 100%
最終更新:2023年07月14日 02:02