アットウィキロゴ
一途(映画『劇場版 呪術廻戦 0』主題歌)
(King Gnu)

ADVANCED

Level: 7
BPM: 160
Notes: 507

1
口口口口 |----|
口口口口 |----|
口口口口 |----|
口口口口 |----|
2
口口口④ |①-②-|
③⑤口⑥ |③-④-|
②⑦口⑧ |⑤-⑥-|
①口口口 |⑦-⑧-|
3
①口口口 |①-②-|
②⑦口⑧ |③-④-|
③⑤口⑥ |⑤-⑥-|
口口口④ |⑦-⑧-|
4
口口口④ |①-②-|
③⑤口⑥ |③-④-|
②⑦口⑧ |⑤-⑥-|
①口口口 |⑦-⑧-|
5
①⑥⑥口 |①-②-|
②口口口 |③-④-|
③⑤⑤口 |⑤---|
口口口④ |⑥---|
6
④口口口 |①---|
口③口③ |②-③-|
口口②口 |----|
①口①口 |④---|
7
口口③③ |①-②-|
④④口口 |----|
②口②口 |③---|
口①口口 |④---|
8
口③口③ |①---|
口口②口 |②-③-|
口口①① |----|
④口口口 |④---|
9
③口③口 |①-②-|
口口口口 |----|
口②口② |③---|
口④①④ |④---|
10
④④口口 |①---|
口口口③ |②-③-|
口①①口 |----|
②口口口 |④---|
11
口口④④ |①---|
口③口口 |②-③-|
口①①口 |----|
口口②口 |④---|
12
④④口口 |①---|
口口③口 |②-③-|
口①①口 |----|
口②口口 |④---|
13
口口④④ |①---|
③口口口 |②-③-|
口①①口 |----|
口口口② |④---|
14
②口口口 |①---|
口口口③ |②-③-|
口①①口
口口口口

口口口口
口口⑦口
④⑥口口 |④-⑤-|
口口口⑤ |⑥-⑦-|
15
口口口口 |----|
⑥口口⑤ |①-②-|
④口口③ |③-④-|
口②①口 |⑤-⑥-|
16
口口口口 |----|
口④①口 |①-②-|
口②口口 |③-④-|
口口③口 |----|
17
②口口① |①---|
②口口① |--②-|
口③③口 |----|
口口口口 |--③-|
18
①口口口 |----|
口口⑥② |①-②-|
③⑤口口 |③-④-|
口口口④ |⑤-⑥-|
19
口口口口 |----|
⑥口口⑤ |①-②-|
④口口③ |③-④-|
口②①口 |⑤-⑥-|
20
口口口口 |----|
口④①口 |①-②-|
口②⑤口 |③-④-|
口⑥③口 |⑤-⑥-|
21
②口口① |①---|
②口口① |--②-|
口③③口 |----|
口口口口 |--③-|
22
口口口口 |----|
口口口口 |--①-|
口口口口
①口口口
23
④①④① |①---|
②口②口 |②---|
⑤③⑤③ |③---|
口口口口 |④-⑤-|
24
口口口口 |--①-|
③①口① |--②-|
口④口口 |--③-|
口②⑤口 |④-⑤-|
25
口口②口 |①-②-|
口口④口 |--③-|
口口口① |--④-|
口口⑤③ |--⑤-|
26
①①口口 |--①-|
口④④口 |②-③-|
③③②② |--④-|
口口口口 |----|
27
口①口① |①---|
口③⑤③ |②---|
②⑤②口 |③---|
④口④口 |④-⑤-|
28
①③②③ |--①-|
口口口口 |--②-|
口口口口 |--③-|
④②④① |--④-|
29
⑤④④⑤ |①-②-|
口口②口 |--③-|
口①口口 |--④-|
口口口③ |--⑤-|
30
口口口口 |--①-|
①①④口 |②-③-|
口④②② |--④-|
③③口口 |----|
31
②口口口 |①---|
口口⑦③ |②-③-|
④⑥①① |④-⑤-|
口口口⑤ |⑥-⑦-|
32
口口口口 |----|
⑥口口⑤ |①-②-|
④口口③ |③-④-|
口②①口 |⑤-⑥-|
33
口①口口 |--①-|
口⑤②口 |②-③-|
口③⑥口 |④-⑤-|
口⑦④口 |⑥-⑦-|
34
②口口① |①---|
②口口① |--②-|
口③③口 |----|
口口口口 |--③-|
35
①口口口 |----|
口口⑥② |①-②-|
③⑤口口 |③-④-|
口口口④ |⑤-⑥-|
36
口口口口 |--①-|
⑦口口⑥ |②-③-|
⑤口口④ |④-⑤-|
①③②口 |⑥-⑦-|
37
口①口口 |--①-|
口⑤②口 |②-③-|
口③⑥口 |④-⑤-|
口⑦④口 |⑥-⑦-|
38
②口口① |①---|
②口口① |--②-|
口③③口 |----|
口口口口 |--③-|
39
口口口口 |----|
口口口口 |--①-|
口口口口
①口口口
40
④①④① |①---|
②口②口 |②---|
⑤③⑤③ |③---|
口口口口 |④-⑤-|
41
口口口口 |--①-|
③①口① |--②-|
口④口口 |--③-|
口②⑤口 |④-⑤-|
42
口口②口 |①-②-|
口口⑤口 |③-④-|
口口③① |--⑤-|
口口⑥④ |--⑥-|
43
①①口口 |--①-|
口③③口 |--②-|
②②口口 |--③-|
口口口④ |--④-|
44
③①③① |①---|
⑤口⑥口 |②-③-|
②⑥②④ |--④-|
口口口口 |⑤-⑥-|
45
①口口④ |--①-|
⑤⑤口口 |--②-|
口口⑥⑥ |③-④-|
③口②① |⑤-⑥-|
46
口口口口 |①-②-|
口口②口 |③-④-|
口①口口
口③口④

⑤⑤⑥⑥
口口口口
⑦⑦口口 |--⑤-|
口口口口 |⑥-⑦-|
47
口④④口 |①--②|
口②②口 |--③-|
口口①① |--④-|
③口口③ |----|
48
②口口口 |①---|
口口②口 |②---|
口口口口
口①①口

口口口口
④口口③
⑥③④⑤ |③-④-|
口⑤⑥口 |⑤-⑥-|
49
口②①口 |①-②-|
口①②口 |--③-|
口口口口
③口口口

口口口口
口口⑥⑥
口口⑤⑤ |--④-|
口口④④ |⑤-⑥-|
50
口口口口 |--①-|
③③口口 |②-③-|
②②口口
①①口口

口口④④
口口口口
口口口口 |--④-|
⑤⑤口口 |--⑤-|
51
口口③口 |--①-|
口④口① |--②-|
②口⑤① |③-④-|
口⑥口口 |⑤-⑥-|
52
①口口口 |----|
③口①② |①---|
⑤②③④ |②-③-|
口④⑤口 |④-⑤-|
53
⑤①⑤④ |①-②-|
口口口口 |③-④-|
口口口口 |--⑤-|
③⑥⑥② |--⑥-|
54
④①④① |--①-|
口②口② |②-③-|
口③口③ |--④-|
口⑤口⑤ |--⑤-|
55
④口口口 |--①-|
①⑤口② |--②-|
①口口② |--③-|
口③③口 |④-⑤-|
56
④④口口 |①---|
口口口③ |②-③-|
口口①口 |----|
②口口口 |④---|
57
口口④④ |①---|
口③口口 |②-③-|
口①①口 |----|
口口②口 |④---|
58
④④口口 |①---|
口口③口 |②-③-|
口①①口 |----|
口②口口 |④---|
59
口口④④ |①---|
③口口口 |②-③-|
口①①口 |----|
口口口② |④---|
60
①口口口 |----|
口口⑥② |①-②-|
③⑤口口 |③-④-|
口口口④ |⑤-⑥-|
61
口口口口 |----|
⑥口口⑤ |①-②-|
④口口③ |③-④-|
口②①口 |⑤-⑥-|
62
口口口口 |----|
口④①口 |①-②-|
口②口口 |③-④-|
口口③口 |----|
63
②口口① |①---|
②口口① |--②-|
口③③口 |----|
口口口口 |--③-|
64
①口口口 |----|
口口⑥② |①-②-|
③⑤口口 |③-④-|
口口口④ |⑤-⑥-|
65
口口口口 |----|
⑥口口⑤ |①-②-|
④口口③ |③-④-|
口②①口 |⑤-⑥-|
66
口口口口 |----|
口④①口 |①-②-|
口②⑤口 |③-④-|
口⑥③口 |⑤-⑥-|
67
②口口① |①---|
②口口① |--②-|
口③③口 |----|
口口口口 |--③-|
68
①口口口 |----|
口口⑥② |①-②-|
③⑤口口 |③-④-|
口口口④ |⑤-⑥-|
69
口口口口 |----|
⑥口口⑤ |①-②-|
④口口③ |③-④-|
口②①口 |⑤-⑥-|
70
口口口口 |----|
口④①口 |①-②-|
口②口口 |③-④-|
口口③口 |----|
71
②口口① |①---|
②口口① |--②-|
口③③口 |----|
口口口口 |--③-|
72
①口口口 |----|
口口⑥② |①-②-|
③⑤口口 |③-④-|
口口口④ |⑤-⑥-|
73
口口口口 |--①-|
⑦口口⑥ |②-③-|
⑤口口④ |④-⑤-|
①③②口 |⑥-⑦-|
74
口口口口 |----|
口④①口 |①-②-|
口②⑤口 |③-④-|
口⑥③口 |⑤-⑥-|
75
②口口① |①---|
②口口① |--②-|
口口口口 |----|
口口口口 |----|
76
口口口口 |①---|
口①①口 |----|
口①①口 |----|
口口口口 |----|

accuracy: 100%
最終更新:2023年07月14日 02:26