アットウィキロゴ
一途(映画『劇場版 呪術廻戦 0』主題歌)
(King Gnu)

EXTREME

Level: 9.0
BPM: 160
Notes: 812

1
口口口口 |----|
口口口口 |----|
口口口口 |----|
口口口口 |----|
2
⑪①⑩⑯ |①②③④|
⑤⑨②⑫ |⑤⑥⑦⑧|
⑬③⑧⑥ |⑨⑩⑪⑫|
⑮⑦④⑭ |⑬⑭⑮⑯|
3
⑪⑤⑩⑯ |①②③④|
①⑨④⑫ |⑤⑥⑦⑧|
⑬③⑧② |⑨⑩⑪⑫|
⑮⑦⑥⑭ |⑬⑭⑮⑯|
4
⑪①⑩⑯ |①②③④|
⑤⑨②⑫ |⑤⑥⑦⑧|
⑬③⑧⑥ |⑨⑩⑪⑫|
⑮⑦④⑭ |⑬⑭⑮⑯|
5
⑦⑤口口 |①②③④|
①口④⑧ |⑤⑥⑦⑧|
口③口②
口口⑥口

口口⑬⑬
⑬⑬口口
⑨口⑪口 |⑨⑩⑪⑫|
口⑩口⑫ |⑬---|
6
口④口口 |①-②-|
口口①口 |③-④-|
口③口④
①口②口

口口口口
⑦⑧⑨⑩
口口口口 |⑤-⑥-|
口⑤口⑥ |⑦⑧⑨⑩|
7
口口②口 |①-②-|
口口口口 |③-④-|
②①④口
口口③口

口⑤口口
口口⑦口
口⑧口⑤ |⑤-⑥-|
⑦⑥口口 |⑦-⑧-|
8
口口④口 |①-②-|
口①口② |③-④-|
④口③口
口口口①

⑤口口口
⑦⑧⑨⑩
口口口⑥ |⑤-⑥-|
口口口口 |⑦⑧⑨⑩|
9
⑤③⑦② |①-②-|
口⑥⑧口 |③-④-|
⑦②⑤④ |⑤-⑥-|
口①口口 |⑦-⑧-|
10
⑥口口③ |①---|
口⑦⑤口 |②-③-|
口②口口 |--④-|
①口①④ |⑤-⑥⑦|
11
口③①口 |①---|
口⑤⑥口 |②-③-|
口⑦①口 |--④-|
口口②④ |⑤-⑥⑦|
12
口口②口 |①---|
①口口口 |②-③-|
口口口口
①③口口

口④口口
⑥口口口
口⑦⑤口 |--④-|
口口口口 |⑤-⑥⑦|
13
⑥⑦口⑤ |①---|
口②①口 |②-③-|
口口口口 |--④-|
④口①③ |⑤-⑥⑦|
14
⑥口①口 |①---|
口③⑦② |②-③④|
④⑧①口 |⑤-⑥-|
口⑤口口 |⑦-⑧-|
15
⑦口⑥① |----|
口②口⑤ |①②③④|
口⑧口③ |⑤-⑥-|
口口④口 |⑦-⑧-|
16
口口口⑥ |----|
①⑤口口 |①②③④|
③⑦②口 |⑤-⑥-|
口④口口 |--⑦-|
17
口③①口 |①--②|
口④⑤口 |--③-|
④口②⑤ |--④-|
①口口③ |--⑤-|
18
口⑥口① |----|
⑥口⑦⑤ |①②③④|
⑧②④⑦ |⑤-⑥-|
口⑧口③ |⑦-⑧-|
19
①口⑥口 |----|
③口口口 |①②③④|
口⑤②⑦ |⑤-⑥-|
④⑧口口 |⑦-⑧-|
20
口⑦口① |----|
口②口③ |①②③④|
⑥口⑤口 |⑤-⑥-|
口口⑧④ |⑦-⑧-|
21
①④①③ |①--②|
④③⑤口 |--③-|
口⑥口⑤ |--④-|
⑥②口口 |⑤-⑥-|
22
④⑦②⑤ |①②③④|
口③口① |⑤⑥⑦⑧|
⑧口⑥口
口口口口
23
口口口口 |①-②-|
口口②口 |③-④-|
口④口①
③③口①

⑤口口口
⑤口口⑥
口口⑦⑧ |⑤-⑥-|
口口⑧⑦ |⑦-⑧-|
24
④⑥②② |①-②-|
⑥①口⑤ |③-④-|
④⑧口⑦ |⑤-⑥-|
⑧③⑦口 |⑦-⑧-|
25
⑧⑤①① |①-②-|
⑧④③⑥ |③-④-|
④⑦②⑥ |⑤-⑥-|
口③口② |⑦-⑧-|
26
口③④② |①-②-|
口口口口 |③-④-|
口口①口
②④③口

口口口口
⑥⑨口⑦
⑩⑤⑧⑥ |⑤-⑥-|
口口口口 |⑦⑧⑨⑩|
27
口①②① |①-②-|
口口口口 |③-④-|
口口口口
③④③口

⑧⑧口口
⑤⑥⑤口
口⑦口⑦ |⑤-⑥-|
口口口口 |⑦-⑧-|
28
口口④④ |①-②-|
⑧⑥口口 |③-④-|
③⑦①⑤ |⑤-⑥-|
⑥⑧②② |⑦-⑧-|
29
④④口口 |①-②-|
口口①① |③-④-|
口口②③
口口③②

口口⑤⑥
口⑧口口
⑦口⑧口 |⑤-⑥-|
⑥口口口 |⑦-⑧-|
30
③口④口 |①-②-|
⑥⑧②⑩ |③-④-|
⑦②⑨⑥ |⑤-⑥-|
⑤④①③ |⑦⑧⑨⑩|
31
口②口口 |①---|
口⑦③口 |②-③④|
口①口④ |⑤-⑥-|
⑥口⑤⑧ |⑦-⑧-|
32
①①⑩② |①--②|
⑤⑦④口 |③④⑤⑥|
⑨⑥口口 |⑦-⑧-|
口③口⑧ |⑨-⑩-|
33
口②⑧口 |--①-|
⑦口⑤口 |②-③④|
口口口④ |⑤-⑥-|
①口③⑥ |⑦-⑧-|
34
③口口① |①--②|
口口口⑤ |--③-|
口④②口 |--④-|
口①③口 |--⑤-|
35
①口口⑦ |----|
口④口口 |①-②③|
③⑥口口 |④-⑤-|
口②口⑤ |⑥-⑦-|
36
口⑥②⑦ |--①-|
⑥口⑦③ |②-③④|
⑧口①⑤ |⑤-⑥-|
口⑧④口 |⑦-⑧-|
37
口口①口 |--①-|
⑥口口③ |②-③④|
口⑧④口 |⑤-⑥-|
②口⑦⑤ |⑦-⑧-|
38
③口①① |①--②|
口口②口 |--③-|
口口③口
①口口③

口④口口
④口口⑤
口口口⑤ |--④-|
⑥⑥口口 |⑤-⑥-|
39
口④口① |①-②-|
口③口口 |③-④-|
口②口口
口口口口
40
口口口口 |①-②-|
口口②口 |③-④-|
口④口①
③③口①

⑤口口口
⑤口口⑥
口口⑦⑧ |⑤-⑥-|
口口⑧⑦ |⑦-⑧-|
41
④⑥②② |①-②-|
⑥①口⑤ |③-④-|
④⑧口⑦ |⑤-⑥-|
⑧③⑦口 |⑦-⑧-|
42
⑧⑤①① |①-②-|
⑧④③⑥ |③-④-|
④⑦②⑥ |⑤-⑥-|
口③口② |⑦-⑧-|
43
口③④② |①-②-|
口口口口 |③-④-|
口口①口
②④③口

口口口口
⑥⑨口⑦
⑩⑤⑧⑥ |⑤-⑥-|
口口口口 |⑦⑧⑨⑩|
44
口①②① |①-②-|
口口口口 |③-④-|
口口口口
③④③口

⑧⑧口口
⑤⑥⑤口
口⑦口⑦ |⑤-⑥-|
口口口口 |⑦-⑧-|
45
口口④④ |①-②-|
⑧⑥口口 |③-④-|
③⑦①⑤ |⑤-⑥-|
⑥⑧②② |⑦-⑧-|
46
④④口口 |①-②-|
口口①① |③-④-|
口口②③
口口③②

口口⑤⑥
⑦⑦⑦⑧
⑥⑧口口 |⑤-⑥-|
⑧⑥口口 |⑦-⑧-|
47
②②口③ |①--②|
④⑥④⑧ |--③-|
⑤口⑦① |--④-|
口③①① |⑤⑥⑦⑧|
48
②②⑦⑤ |①---|
⑥口口⑦ |②-③-|
④①口⑤ |④-⑤-|
④⑥口③ |⑥-⑦-|
49
⑥⑤⑤④ |①-②-|
⑥②②④ |--③-|
口①①口 |--④-|
③口③口 |⑤-⑥-|
50
⑧口⑧⑥ |①-②-|
⑥⑧⑥⑦ |③-④-|
④③③② |⑤-⑥-|
④①⑤② |⑦-⑧-|
51
⑧④口⑤ |①-②-|
④⑧口⑦ |③-④-|
③①②⑤ |⑤-⑥-|
⑥②⑦② |⑦-⑧-|
52
口口②口 |①---|
口口②口 |②-③-|
口③②口
口①口①

口④口口
④口口⑦
⑥口口⑤ |④-⑤-|
⑥口⑤⑦ |⑥-⑦-|
53
口口口② |①-②-|
口①④口 |③-④-|
口③①④
口②口口

⑤⑥⑥⑦
⑤口口⑦
口口口口 |--⑤-|
口口口口 |⑥-⑦-|
54
⑥口⑥口 |①-②-|
口⑧⑦⑧ |③-④-|
②③③④ |⑤-⑥-|
②①⑤④ |⑦-⑧-|
55
④⑦口② |①-②-|
⑦口⑥⑧ |③-④-|
口①③⑧ |⑤-⑥-|
②⑤口④ |⑦-⑧-|
56
⑥口口③ |①---|
口⑦⑤口 |②-③-|
口②口口 |--④-|
①口①④ |⑤-⑥⑦|
57
口③①口 |①---|
口⑤⑥口 |②-③-|
口⑦①口 |--④-|
口口②④ |⑤-⑥⑦|
58
口口②口 |①---|
①口口口 |②-③-|
口口口口
①③口口

口④口口
⑥口口口
口⑦⑤口 |--④-|
口口口口 |⑤-⑥⑦|
59
④口口口 |①②③④|
口⑥①口 |-⑤-⑥|
②口口③
口⑤①口

口口口⑦
⑨口口口
口⑪⑩口 |⑦-⑧-|
口口⑫⑧ |⑨⑩⑪⑫|
60
⑥①①口 |①---|
口③⑦② |②-③④|
④⑧口口 |⑤-⑥-|
口⑤口口 |⑦-⑧-|
61
⑧口⑦② |①---|
口③口⑥ |②③④⑤|
口⑨口④ |⑥-⑦-|
口口⑤① |⑧-⑨-|
62
口口口⑦ |①---|
②⑥口口 |②③④⑤|
④⑨③⑧ |⑥-⑦-|
口⑤口① |⑧-⑨-|
63
口③①口 |①--②|
口④⑤口 |--③-|
④口②⑤ |--④-|
①口口③ |--⑤-|
64
口⑦口② |①---|
⑦口⑧⑥ |②③④⑤|
⑨③⑤⑧ |⑥-⑦-|
①⑨口④ |⑧-⑨-|
65
②口⑦口 |①---|
④口口口 |②③④⑤|
口⑥③⑧ |⑥-⑦-|
⑤⑨①口 |⑧-⑨-|
66
口口口② |①---|
口③口④ |②③④⑤|
口口口口
口口①⑤

口⑧口口
口口口口
⑦口⑥口 |⑥-⑦-|
口口⑨口 |⑧-⑨-|
67
①④①③ |①--②|
④③⑤口 |--③-|
口⑥口⑤ |--④-|
⑥②口口 |⑤-⑥-|
68
⑥口口口 |①---|
口③⑦② |②-③④|
④⑧口口 |⑤-⑥-|
口⑤①口 |⑦-⑧-|
69
⑧口⑦② |①---|
口③口⑥ |②③④⑤|
口⑨口④ |⑥-⑦-|
口口⑤① |⑧-⑨-|
70
口口口⑦ |①---|
②⑥口口 |②③④⑤|
④⑨③⑧ |⑥-⑦-|
口⑤口① |⑧-⑨-|
71
口③①口 |①--②|
口④⑤口 |--③-|
④口②⑤ |--④-|
①口口③ |--⑤-|
72
口⑦口② |①---|
⑦口⑧⑥ |②③④⑤|
⑨③⑤⑧ |⑥-⑦-|
①⑨口④ |⑧-⑨-|
73
③口⑧① |①-②-|
⑤口口口 |③④⑤⑥|
口⑦④⑨ |⑦-⑧-|
⑥⑩②口 |⑨-⑩-|
74
口口口② |①---|
口③口④ |②③④⑤|
口口口口
口口①⑤

口⑧口口
口口口口
⑦口⑥口 |⑥-⑦-|
口口⑨口 |⑧-⑨-|
75
①口①口 |①--②|
口②③口 |--③-|
口①④口 |--④-|
口③口③ |----|
76
口①口① |①---|
口口口口 |----|
口①口① |----|
口口口口 |----|

accuracy: 100%
最終更新:2023年07月14日 02:46