アットウィキロゴ
神っぽいな
ピノキオピー

BASIC

Level: 3
BPM: 142
Notes: 153

1
口口口口 |----|
口口口口 |----|
口口口口 |----|
口口口口 |----|
2
口口口口 |----|
口口口口 |----|
口口口口 |----|
口口口口 |----|
3
口口口口 |----|
口口口口 |----|
口口口口 |----|
口口口口 |----|
4
口口口口 |----|
口口口口 |----|
口口口口 |----|
口口口口 |----|
5
口口口口 |----|
口口口口 |----|
口口口口 |----|
口口口口 |----|
6
口口口口 |①---|
口①口口 |----|
口口②口 |②---|
口口口口 |----|
7
口口口口 |①---|
口口口口 |----|
口口口口 |----|
口①口口 |----|
8
口口口口 |①---|
口口①口 |----|
口②口口 |②---|
口口口口 |----|
9
口口口口 |①---|
口口口口 |----|
口口口口 |----|
口口①口 |----|
10
口口口口 |①---|
口口②口 |----|
口①口口 |②---|
口口口口 |----|
11
口①口口 |①---|
口口口口 |----|
口口口口 |----|
口口口口 |----|
12
口口口口 |①---|
口②口口 |----|
口口①口 |②---|
口口口口 |----|
13
口口①口 |①---|
口口口口 |----|
口②②口 |----|
口口口口 |②---|
14
口口口口 |①---|
①口口② |----|
口口口口 |②---|
口口口口 |----|
15
口口口口 |①---|
口口口口 |----|
①口口② |②---|
口口口口 |----|
16
口口口口 |①---|
口口口口 |----|
口口口口 |②---|
①口口② |----|
17
口口口口 |①---|
口②②口 |----|
口①①口 |②---|
口口口口 |----|
18
口口口口 |①---|
口口口口 |----|
①口口② |②---|
口口口口 |----|
19
口口口口 |①---|
①口口② |----|
口口口口 |②---|
口口口口 |----|
20
①口口② |①---|
口口口口 |----|
口口口口 |②---|
口口口口 |----|
21
口口口口 |①---|
口①①口 |----|
口口口口 |----|
口口口口 |----|
22
口口口口 |①---|
口口口口 |----|
①口口① |----|
口口口口 |----|
23
①口口① |①---|
口口口口 |----|
口口口口 |----|
口口口口 |----|
24
口口口口 |①---|
①②③④ |②---|
口口口口 |③---|
口口口口 |④---|
25
口①①口 |①---|
口口口口 |----|
口口口口 |----|
口口口口 |----|
26
口口口口 |①---|
①口口① |----|
口口口口 |----|
口口口口 |----|
27
口口口口 |①---|
口口口口 |----|
口口口口 |----|
①口口① |----|
28
口口口口 |①---|
口口口口 |②---|
④③②① |③---|
口口口口 |④---|
29
口口口口 |①---|
口口口口 |----|
口②②口 |②---|
口①①口 |----|
30
口口口口 |①---|
口①①口 |----|
口口口口 |----|
口口口口 |----|
31
口口口口 |----|
口口口口 |----|
口口口口 |----|
口口口口 |----|
32
口口口口 |①---|
①②③④ |②---|
口口口口 |③---|
口口口口 |④---|
33
口口口口 |①---|
口口口口 |②---|
口③②① |③---|
口口口口 |----|
34
②口口① |①---|
④口口③ |②---|
口口口口 |③---|
口口口口 |④---|
35
口口口口 |①---|
口口口口 |②---|
②口口① |③---|
口口口③ |----|
36
口④口口 |①---|
口③口口 |②---|
口②口口 |③---|
口①口口 |④---|
37
口口①口 |①---|
口口②口 |②---|
口口③口 |③---|
口口口口 |----|
38
①②③④ |①---|
口口口口 |②---|
口口口口 |③---|
口口口口 |④---|
39
口口口口 |①---|
口口口口 |----|
口①①口 |----|
口口口口 |----|
40
口②③口 |①---|
口口口口 |②---|
①口口④ |③---|
口口口口 |④---|
41
口口口口 |①---|
④口口① |②---|
口③②口 |③---|
口口口口 |④---|
42
口③②口 |①---|
口口口口 |②---|
④口口① |③---|
口口口口 |④---|
43
口口口口 |①---|
口③口口 |②---|
口口②口 |③---|
口①口口 |----|
44
口口口口 |①---|
④口口① |②---|
口口口口 |③---|
口③②口 |④---|
45
口口口口 |①---|
口②③口 |②---|
①口口④ |③---|
口口口口 |④---|
46
①口口④ |①---|
口口口口 |②---|
口②③口 |③---|
口口口口 |④---|
47
口①①口 |①---|
口②②口 |②---|
口③③口 |③---|
口④④口 |④---|
48
口口口口 |①---|
口口口口 |----|
①口口② |②---|
口口口口 |----|
49
口口口口 |①---|
①口口② |----|
口口口口 |②---|
口口口口 |----|
50
①口口② |①---|
口口口口 |----|
口口口口 |②---|
口口口口 |----|
51
口口口口 |①---|
口①①口 |----|
口②②口 |②---|
口口口口 |----|
52
口口口口 |①---|
①口口② |----|
口口口口 |②---|
口口口口 |----|
53
口口口口 |①---|
口口口口 |----|
①口口② |②---|
口口口口 |----|
54
口口口口 |①---|
口口口口 |----|
口口口口 |②---|
①口口② |----|
55
口口口口 |①---|
口口口口 |----|
口①①口 |----|
口口口口 |----|
56
①口口口 |①---|
口口口② |----|
口口口口 |②---|
口口口口 |----|
57
口口口口 |①---|
口口口口 |----|
①口口口 |②---|
口口口② |----|
58
口口口口 |①---|
口口口口 |----|
口口口② |②---|
①口口口 |----|
59
口口口② |①---|
①口口口 |----|
口口口口 |②---|
口口口口 |----|
60
口①口口 |①---|
口口②口 |----|
口口口口 |②---|
口口口口 |----|
61
口口口口 |①---|
口口口口 |----|
口①口口 |②---|
口口②口 |----|
62
口口口口 |①---|
口口口口 |----|
口口②口 |②---|
口①口口 |----|
63
②口口② |①---|
口①口口 |----|
口口口口 |----|
口口口口 |②---|

accuracy: 100%
最終更新:2022年08月07日 01:36