アットウィキロゴ
神っぽいな
ピノキオピー

ADVANCED

Level: 6
BPM: 142
Notes: 337

1
口口口口 |----|
口口口口 |----|
口口口口 |----|
口口口口 |----|
2
口口口口 |----|
口口口口 |----|
口口口口 |----|
口口口口 |----|
3
口口口口 |----|
口口口口 |----|
口口口口 |----|
口口口口 |----|
4
口口口口 |----|
口口口口 |----|
口口口口 |----|
口口口口 |----|
5
口口口口 |----|
口口口口 |----|
口口口口 |----|
口口口口 |----|
6
口口口口 |①--②|
口⑥⑤④ |--③-|
①②③口 |④--⑤|
口口口口 |--⑥-|
7
①②③口 |①--②|
口口口口 |--③-|
口口口口 |----|
口口口口 |----|
8
口口口口 |①--②|
口③②① |--③-|
④⑤⑥口 |④--⑤|
口口口口 |--⑥-|
9
口口口口 |①--②|
口口口口 |--③-|
口口口口 |----|
口③②① |----|
10
③口口⑥ |①--②|
②口口⑤ |--③-|
①口口④ |④--⑤|
口口口口 |--⑥-|
11
口③口口 |①--②|
口②口口 |--③-|
口①口口 |----|
口口口口 |----|
12
口口口口 |①--②|
⑥口③口 |--③-|
⑤口②口 |④--⑤|
④口①口 |--⑥-|
13
口④⑤口 |①--②|
口口口③ |--③-|
口口口② |--④-|
口口口① |⑤---|
14
④口口⑤ |--①-|
①口口② |②---|
口口口口 |③---|
口③③口 |④-⑤-|
15
口④⑤口 |--①-|
口①②口 |②---|
口口口口 |③---|
③口口③ |④-⑤-|
16
④口口⑤ |--①-|
①口口② |②---|
口口口口 |③---|
口③③口 |④-⑤-|
17
口①①口 |--①-|
口②②口 |--②-|
口③③口 |--③-|
口④④口 |--④-|
18
⑤口口④ |--①-|
②口口① |②---|
口口口口 |③---|
口③③口 |④-⑤-|
19
口⑤④口 |--①-|
口②①口 |②---|
口口口口 |③---|
③口口③ |④-⑤-|
20
⑤口口④ |--①-|
②口口① |②---|
口口口口 |③---|
口③③口 |④-⑤-|
21
口③③口 |①--②|
口②②口 |--③-|
口①①口 |----|
口口口口 |----|
22
口口口口 |①---|
口口口口 |②-③-|
口④⑤口 |--④-|
①②③① |⑤---|
23
口⑤口口 |①---|
①②③① |②-③-|
④口口④ |--④-|
口口口口 |--⑤-|
24
②口①② |①---|
口③④口 |②---|
口⑤⑥口 |③-④-|
口口口口 |⑤-⑥-|
25
口口口口 |①---|
口口口口 |----|
口口口口 |----|
口①口口 |----|
26
④口口⑤ |①---|
②口口③ |②-③-|
口①①口 |--④-|
口口口口 |⑤---|
27
口口口口 |①---|
口④④口 |②-③-|
②口口③ |--④-|
⑤①①口 |--⑤-|
28
口②②③ |①---|
④口口口 |②---|
口口口⑤ |③-④-|
⑥口口① |⑤-⑥-|
29
口口口口 |①---|
口②②口 |----|
口①①口 |②---|
口口口口 |----|
30
①口口① |①---|
口口口口 |----|
口口口口 |----|
口口口口 |----|
31
口口口口 |----|
口口口口 |----|
口口口口 |----|
口口口口 |----|
32
①口⑥① |①---|
口⑤口口 |②---|
②口④② |③-④-|
口③口口 |⑤-⑥-|
33
口口口口 |①---|
①口口① |②---|
②口口② |③---|
③口口③ |----|
34
口口口口 |①---|
口①①口 |②---|
⑥⑤④③ |③-④-|
口②②口 |⑤-⑥-|
35
口口口口 |①-②-|
口口⑤口 |③-④-|
口④③口 |⑤---|
口②①口 |----|
36
口口③口 |①---|
②④口② |②---|
口口⑤口 |③-④-|
①⑥口① |⑤-⑥-|
37
③口口③ |①---|
②口口② |②---|
①口口① |③---|
口口口口 |----|
38
口①①口 |①---|
⑥⑤④③ |②---|
口②②口 |③-④-|
口口口口 |⑤-⑥-|
39
口口口口 |①---|
口口口口 |----|
口口口口 |----|
②①①口 |--②-|
40
口⑦口口 |①-②-|
②⑥口④ |③-④-|
①⑤口③ |⑤-⑥-|
口口口⑧ |⑦-⑧-|
41
口口⑦口 |①-②-|
④口⑥② |③-④-|
③口⑤① |⑤-⑥-|
口口口口 |⑦---|
42
①口⑥① |①---|
口⑤口口 |②---|
②口④② |③-④-|
口③口口 |⑤-⑥-|
43
口口口口 |①---|
①口口① |②---|
②口口② |③---|
③④口③ |--④-|
44
口口口口 |①-②-|
②口口口 |③-④-|
口①④口
口口口③

口口口口
口⑥口⑤
口口口口 |⑤-⑥-|
口⑦口⑧ |⑦-⑧-|
45
口口⑦② |①-②-|
③口①口 |③-④-|
口口口⑥ |⑤-⑥-|
④口⑤口 |⑦---|
46
①③口① |①---|
口口④口 |②---|
②⑤口② |③-④-|
口口⑥口 |⑤-⑥-|
47
口⑦口口 |①---|
②⑤⑥② |②---|
口③④口 |③④⑤⑥|
①口口① |⑦---|
48
④口口⑤ |--①-|
①口口② |②---|
口口口口 |③---|
口③③口 |④-⑤-|
49
口④⑤口 |--①-|
口①②口 |②---|
口口口口 |③---|
③口口③ |④-⑤-|
50
④口口⑤ |--①-|
①口口② |②---|
口口口口 |③---|
口③③口 |④-⑤-|
51
口①①口 |--①-|
口②②口 |--②-|
口③③口 |--③-|
口④④口 |--④-|
52
⑤口口④ |--①-|
②口口① |②---|
口口口口 |③---|
口③③口 |④-⑤-|
53
口⑤④口 |--①-|
口②①口 |②---|
口口口口 |③---|
③口口③ |④-⑤-|
54
⑤口口④ |--①-|
②口口① |②---|
口口口口 |③---|
口③③口 |④-⑤-|
55
口③③口 |①--②|
口②②口 |--③-|
口①①口 |----|
口口口口 |----|
56
口口口口 |①--②|
口⑥⑤④ |--③-|
①②③口 |④--⑤|
口口口口 |--⑥-|
57
①②③口 |①--②|
口口口口 |--③-|
口口口口 |----|
口口口口 |----|
58
口口口口 |①--②|
口③②① |--③-|
④⑤⑥口 |④--⑤|
口口口口 |--⑥-|
59
口口口口 |①--②|
口口口口 |--③-|
口口口口 |----|
口③②① |----|
60
③口口⑥ |①--②|
②口口⑤ |--③-|
①口口④ |④--⑤|
口口口口 |--⑥-|
61
口③口口 |①--②|
口②口口 |--③-|
口①口口 |----|
口口口口 |----|
62
口口口口 |①--②|
⑥口③口 |--③-|
⑤口②口 |④--⑤|
④口①口 |--⑥-|
63
口④⑤口 |①--②|
口口口③ |--③-|
口口口② |--④-|
口口口① |⑤---|

accuracy: 100%
最終更新:2022年08月07日 01:37