アットウィキロゴ
神っぽいな
ピノキオピー

EXTREME

Level: 8
BPM: 142
Notes: 520

1
口口口口 |----|
口口口口 |----|
口口口口 |----|
口口口口 |----|
2
口口口口 |----|
口口口口 |----|
口口口口 |----|
口口口口 |----|
3
口口口口 |----|
口口口口 |----|
口口口口 |----|
口口口口 |----|
4
口口口口 |----|
口口口口 |----|
口口口口 |----|
口口口口 |----|
5
口口口口 |----|
口口口口 |----|
口口口口 |----|
口口口口 |----|
6
口⑤⑥④ |①--②|
①口口① |--③-|
口③⑧口 |④-⑤⑥|
口⑦②口 |--⑦⑧|
7
②口口② |①--②|
口①口口 |--③-|
③口口③ |----|
④口口口 |--④-|
8
口口口口 |①--②|
口①①口 |--③-|
口②②口
口口③口

口⑤口④
口口⑥口
口口口口 |④-⑤⑥|
口⑦口口 |--⑦-|
9
③口口③ |①--②|
口口口口 |--③-|
②口口② |----|
口口①口 |----|
10
口口口口 |①-②③|
④①①口 |--④-|
口口③口
口②口口

口口口⑤
口口⑦口
口⑥口口 |⑤-⑥⑦|
⑧口口口 |--⑧-|
11
口口③口 |①-②③|
口②口① |--④-|
④口口④ |----|
⑤口口口 |--⑤-|
12
口⑥②口 |①--②|
①⑤口④ |--③-|
口⑧口口 |④-⑤⑥|
口口⑦③ |--⑦⑧|
13
②口口② |①--②|
口口①口 |--③-|
③口口③
口口口口

口口口口
口⑤④口
口口口口 |--④-|
口④⑤口 |⑤---|
14
口口①口 |--①-|
口口口① |②③-④|
②口口口
口③口④

⑤口⑧口
口口⑦⑧
口⑥口口 |-⑤-⑥|
口口口口 |⑦-⑧-|
15
口①口口 |--①-|
①口口口 |②③-④|
口口口②
④口③口

口⑧口⑤
⑧⑦口口
口口⑥口 |-⑤-⑥|
口口口口 |⑦-⑧-|
16
口口①口 |--①-|
口口口① |②③-④|
②口口口
口③口④

⑤口⑧口
口口⑦⑧
口⑥口口 |-⑤-⑥|
口口口口 |⑦-⑧-|
17
③①③① |--①-|
口口口口 |--②-|
口口口口 |--③-|
②④②④ |--④-|
18
口①口口 |--①-|
①口口口 |②③-④|
口口口②
④口③口

口⑧口⑤
⑧⑦口口
口口⑥口 |-⑤-⑥|
口口口口 |⑦-⑧-|
19
口口①口 |--①-|
口口口① |②③-④|
②口口口
口③口④

⑤口⑧口
口口⑦⑧
口⑥口口 |-⑤-⑥|
口口口口 |⑦-⑧-|
20
口①口⑤ |--①-|
①⑦口口 |②③-④|
口口⑥② |-⑤-⑥|
④⑧③口 |⑦-⑧-|
21
②口①口 |①--②|
口口③口 |--③-|
口③口口 |----|
口口口② |----|
22
口口口口 |①-②-|
③口口口 |③-④-|
②③口口
①②口④

口⑦⑧口
口口口⑥
口口⑥⑤ |⑤-⑥-|
⑨口⑤口 |⑦⑧⑨-|
23
⑥口口⑦ |①-②-|
②⑧口⑤ |③-④-|
①②⑤④ |⑤-⑥-|
口①④③ |⑦-⑧-|
24
口口⑥口 |①---|
口⑤①口 |②---|
口口④口 |③-④-|
②③口② |⑤-⑥-|
25
①口口① |①---|
口口口口 |----|
口口口口 |----|
口口口口 |----|
26
②口口口 |①-②-|
口口③口 |③-④-|
③口口口
①口②④

口⑦⑧⑤
口⑥口口
口口口⑥ |⑤-⑥-|
⑨⑤口口 |⑦⑧⑨-|
27
①口口④ |①-②-|
⑦⑤②⑦ |③-④-|
②⑥⑥⑤ |⑤-⑥-|
口④①③ |--⑦-|
28
①②⑦① |①---|
口⑥口口 |②-③-|
口口口⑤ |④-⑤-|
④口③口 |⑥-⑦-|
29
口口口口 |①---|
口口②口 |----|
口②口口 |②---|
口①①口 |----|
30
①口口口 |①---|
口口口口 |----|
口口口口 |----|
口口口① |----|
31
口口口口 |----|
口口口口 |----|
口口口口 |----|
口①口口 |--①-|
32
①口口① |①-②-|
④②口④ |③-④-|
口口③口
口口口口

口口口口
口口口口
口⑧⑧⑥ |⑤-⑥-|
⑤⑦口⑤ |⑦-⑧-|
33
①口口① |①-②-|
④②口④ |③-④-|
口⑥⑥口 |⑤---|
⑤口③⑤ |--⑥-|
34
②①③④ |①-②-|
①②④③ |③-④-|
⑤口口⑥ |⑤-⑥-|
口⑦⑧口 |⑦-⑧-|
35
口⑤⑤口 |①-②-|
口口③口 |③-④-|
④②口④ |⑤---|
①⑥⑥① |--⑥-|
36
①口口① |①-②-|
④②口④ |③-④-|
口口③口
口口口口

口口口口
口口口口
口⑧⑧⑥ |⑤-⑥-|
⑤⑦口⑤ |⑦-⑧-|
37
①口口① |①-②-|
④②口④ |③-④-|
口⑥⑥口 |⑤---|
⑤口③⑤ |--⑥-|
38
②①③④ |①-②-|
①②④③ |③-④-|
⑤⑥⑧⑦ |⑤-⑥-|
⑥⑤⑦⑧ |⑦-⑧-|
39
①口口① |①---|
②口口② |②---|
③口⑤③ |③---|
口④口口 |--④⑤|
40
③口口② |①-②③|
⑤①口④ |④⑤⑥⑦|
⑦口口⑥
口口口口

⑬⑭口口
口口⑫口
口⑪⑩口 |⑧⑨⑩⑪|
口⑨⑧口 |⑫-⑬⑭|
41
口口①口 |①-②-|
②口口② |③④⑤⑥|
⑤口口⑥
③口口④

口⑨口口
⑩⑦⑧⑩
口口口口 |⑦⑧⑨-|
口⑪⑪口 |⑩-⑪-|
42
①口口① |①-②-|
④②口④ |③-④-|
口口③口
口口口口

口口口口
口口口口
口⑧⑧⑥ |⑤-⑥-|
⑤⑦口⑤ |⑦-⑧-|
43
①口口① |①-②-|
④②口④ |③-④-|
口口⑦口 |⑤---|
⑤⑥③⑤ |--⑥⑦|
44
③④⑤⑥ |①-②-|
口①口口 |③④⑤⑥|
②口口②
口口口口

口口口口
口⑫口口
口口⑪口 |-⑦⑧⑨|
⑩⑨⑧⑦ |⑩-⑪⑫|
45
②⑩①③ |①-②③|
④口⑨⑤ |④⑤⑥⑦|
⑥⑧口⑦ |⑧⑨⑩-|
⑪⑫⑫⑪ |⑪-⑫-|
46
①口口① |①-②-|
④②口④ |③-④-|
口口③口
口口口口

⑧口口⑧
口口口口
口口口⑥ |⑤-⑥-|
⑤⑦口⑤ |⑦-⑧-|
47
口②②口 |①-②-|
④①①④ |③-④-|
口口口口
③口口③

⑨口口口
口⑩⑩口
⑤⑥⑦⑧ |⑤⑥⑦⑧|
口口口口 |⑨-⑩-|
48
口口①口 |--①-|
口口口① |②③-④|
②口口口
口③口④

⑤口⑧口
口口⑦⑧
口⑥口口 |-⑤-⑥|
口口口口 |⑦-⑧-|
49
口①口口 |--①-|
①口口口 |②③-④|
口口口②
④口③口

口⑧口⑤
⑧⑦口口
口口⑥口 |-⑤-⑥|
口口口口 |⑦-⑧-|
50
口口①口 |--①-|
口口口① |②③-④|
②口口口
口③口④

⑤口⑧口
口口⑦⑧
口⑥口口 |-⑤-⑥|
口口口口 |⑦-⑧-|
51
③①③① |--①-|
口口口口 |--②-|
口口口口 |--③-|
②④②④ |--④-|
52
口①口口 |--①-|
①口口口 |②③-④|
口口口②
④口③口

口⑧口⑤
⑧⑦口口
口口⑥口 |-⑤-⑥|
口口口口 |⑦-⑧-|
53
口口①口 |--①-|
口口口① |②③-④|
②口口口
口③口④

⑤口⑧口
口口⑦⑧
口⑥口口 |-⑤-⑥|
口口口口 |⑦-⑧-|
54
口①口⑤ |--①-|
①⑦口口 |②③-④|
口口⑥② |-⑤-⑥|
④⑧③口 |⑦-⑧-|
55
②口①口 |①--②|
口口口口 |--③-|
口③口口 |----|
口口口口 |----|
56
口⑤⑥④ |①--②|
口口口① |--③-|
口③⑧口 |④-⑤⑥|
口⑦②口 |--⑦⑧|
57
口口口② |①--②|
口①口口 |--③-|
口口口③ |----|
④口口口 |--④-|
58
口⑤口④ |①--②|
口①⑥口 |--③-|
口②口口 |④-⑤⑥|
口⑦③口 |--⑦-|
59
③口口口 |①--②|
口口口口 |--③-|
②口口口 |----|
口口①口 |----|
60
口口口口 |①-②③|
④口①口 |--④-|
口口③口
口②口口

口口口⑤
口口⑦口
口⑥口口 |⑤-⑥⑦|
⑧口口口 |--⑧-|
61
口口③口 |①-②③|
口②口① |--④-|
④口口口 |----|
⑤口口口 |--⑤-|
62
口⑦③口 |①-②③|
①⑥②⑤ |--④-|
口口口口 |⑤-⑥⑦|
口⑧口④ |--⑧-|
63
④口口口 |①--②|
⑤口①口 |--③-|
口②口③ |--④-|
口口口口 |⑤---|

accuracy: 100%
最終更新:2022年08月07日 01:38