アットウィキロゴ
銀の旋律-Silver melodia-

BPM:175
1
□□□□ |----|
□□□□ |----|
□□□□ |----|
□□□□ |----|
2
②□□③ |①-②-|
□⑤⑥□ |③-④-|
□□□□ |⑤---|
①⑤⑥④ |⑥---|
3
③□□④ |①--②|
□⑤□□ |--③-|
□②□⑥ |④-⑤-|
①⑦□□ |⑥-⑦-|
4
□□□□ |--①-|
□④⑤□ |②-③-|
③②①□ |--④-|
□□□□ |⑤---|
5
①□□⑤ |①-②-|
□□□□ |③-④-|
⑥⑦⑧□ |⑤-⑥-|
□④③② |⑦-⑧-|
6
③②①□ |--①-|
□⑤④□ |②-③-|
□□□□ |--④-|
□□□□ |⑤---|
7
④□□③ |①--②|
□□⑤□ |--③-|
⑥□②□ |④-⑤-|
□□⑦① |⑥-⑦-|
8
□□□□ |--①-|
□⑤④□ |②-③-|
□①②③ |--④-|
□□□□ |⑤---|
9
⑤⑧⑧① |①-②-|
□⑧⑧□ |③-④-|
□□⑦⑥ |⑤-⑥-|
②③④□ |⑦-⑧-|
10
□□□① |----|
□□□□ |----|
□□□□ |----|
□□□□ |①---|
11
□②④□ |①-②-|
⑨⑧⑦⑥ |③-④-|
□□⑩□ |⑤-⑥⑦|
⑤①③□ |⑧⑨⑩-|
12
□②□④ |①-②-|
⑧⑦⑥□ |③-④-|
□⑤□⑨ |⑤-⑥⑦|
□①□③ |⑧-⑨-|
13
□④②□ |①-②-|
⑧⑨⑩⑪ |③-④-|
□⑥⑦□ |⑤-⑥⑦|
□③①⑤ |⑧⑨⑩⑪|
14
①□⑤② |①-②-|
□□□□ |③-④-|
⑨⑧⑦⑥ |⑤-⑥⑦|
③□④⑩ |⑧⑨⑩-|
15
□②④□ |①-②-|
⑨⑧⑦⑥ |③-④-|
□□⑩□ |⑤-⑥⑦|
⑤①③□ |⑧⑨⑩-|
16
□②□④ |①-②-|
⑧⑦⑥□ |③-④-|
□⑤□⑨ |⑤-⑥⑦|
□①□③ |⑧-⑨-|
17
□④②□ |①-②-|
⑧⑨⑩⑪ |③-④-|
□⑥⑦□ |⑤-⑥⑦|
□③①⑤ |⑧⑨⑩⑪|
18
①□④□ |①-②-|
□□□□ |③-④-|
⑨⑧⑦⑥ |⑤-⑥⑦|
②⑤③⑩ |⑧⑨⑩-|
19
□①□① |①---|
□③□□ |--②-|
□⑤④□ |--③-|
②□②□ |④-⑤-|
20
①□①□ |①---|
□□□③ |--②-|
④□□⑤ |--③-|
□②□② |④-⑤-|
21
①①③③ |①---|
④④□□ |②-③-|
□□⑤⑤ |--④-|
□□②□ |--⑤-|
22
□□□③ |①-②-|
□⑥⑦⑧ |③-④⑤|
④②□□ |⑥⑦⑧-|
①□⑨⑤ |⑨---|
23
①□①□ |①---|
□□③□ |--②-|
□④⑤□ |--③-|
□②□② |④-⑤-|
24
□①□① |①---|
③□□□ |--②-|
⑤□□④ |--③-|
②□②□ |④-⑤-|
25
④④①□ |①-②-|
⑥②⑤□ |③-④-|
□⑥③⑤ |--⑤-|
□⑦⑦□ |⑥-⑦-|
26
⑤□③□ |①-②-|
□②⑤⑥ |③-④-|
⑤⑥④□ |⑤---|
①□□⑥ |⑥---|
27
□①□① |①---|
□⑤□□ |②-③-|
□⑦⑥④ |④-⑤-|
③②③□ |⑥-⑦-|
28
①□①□ |①---|
□④□⑤ |②-③-|
⑥□□⑦ |④-⑤-|
□③②③ |⑥-⑦-|
29
①①③③ |①---|
⑤⑤□□ |②-③-|
□□⑦⑦ |④-⑤-|
□④②⑥ |⑥-⑦-|
30
□□□□ |①---|
③⑤④□ |②---|
②⑦⑥□ |③---|
①□□□ |④⑤⑥⑦|
31
①□①□ |①---|
□□⑤□ |②-③-|
④⑥⑦□ |④-⑤-|
□③②③ |⑥-⑦-|
32
□①□① |①---|
⑤□④□ |②-③-|
⑦□□⑥ |④-⑤-|
③②③□ |⑥-⑦-|
33
④④①□ |①-②-|
⑦②⑥□ |③-④-|
□⑦③⑥ |⑤-⑥-|
⑤⑧⑧□ |⑦-⑧-|
34
⑥⑧⑦⑨ |①②③④|
⑩②□① |⑤⑥⑦⑧|
④□③⑨ |⑨---|
⑩□□⑤ |⑩---|
35
□⑤□□ |①-②③|
⑦③②□ |④-⑤-|
□⑨④□ |⑥-⑦-|
□①⑧⑥ |⑧-⑨-|
36
□□□② |①---|
□④⑦□ |②-③-|
□□⑤① |④-⑤-|
③⑥□□ |⑥-⑦-|
37
□⑥□⑨ |①-②③|
②⑧□③ |④-⑤-|
④□⑦□ |⑥-⑦-|
□□①⑤ |⑧-⑨-|
38
②□⑤□ |①-②-|
⑥□③⑦ |③-④-|
⑧□□⑨ |⑤---|
④□①□ |⑥⑦⑧⑨|
39
□⑤□□ |①-②③|
⑦③②□ |④-⑤-|
□⑨④□ |⑥-⑦-|
□①⑧⑥ |⑧-⑨-|
40
□□□② |①---|
□④⑦□ |②-③-|
□□⑤① |④-⑤-|
③⑥□□ |⑥-⑦-|
41
①②③④ |①-②-|
□□□⑧ |③-④-|
□□□⑧ |⑤-⑥-|
□⑦⑥⑤ |⑦-⑧-|
42
①□①④ |--①-|
②□②□ |②-③-|
③□③□ |----|
□□□□ |④---|
43
□①③□ |①-②-|
⑤□□⑨ |③-④-|
□⑧⑦⑥ |⑤-⑥⑦|
□②④□ |⑧-⑨-|
44
②□□④ |①-②-|
⑥⑦⑧□ |③-④-|
□□⑤□ |⑤-⑥⑦|
①⑨□③ |⑧-⑨-|
45
③□①□ |①-②-|
□□□⑤ |③-④-|
□□□□ |⑤-⑥⑦|
④□②□ |⑧⑨⑩⑪|

□⑩⑪□
□⑧⑨□
□⑥⑦□
□□□□
46
⑤⑪⑩□ |①-②-|
②□⑥④ |③-④-|
①⑦□③ |⑤-⑥⑦|
□⑨⑧□ |⑧⑨⑩⑪|
47
④□□② |①-②-|
□□⑩⑤ |③-④-|
□⑨⑧□ |⑤-⑥⑦|
③⑦⑥① |⑧⑨⑩-|
48
④□□② |①-②-|
□□□□ |③-④-|
□⑥⑦⑧ |⑤-⑥⑦|
③⑨⑤① |⑧-⑨-|
49
③⑩⑪① |①-②-|
□⑧⑨⑤ |③-④-|
□⑥⑦□ |⑤-⑥⑦|
④□□② |⑧⑨⑩⑪|
50
⑥□□⑥ |①-②-|
②⑥⑥④ |③-④-|
①⑤⑤③ |⑤---|
⑤□□⑤ |⑥---|
51
□①③□ |①-②-|
⑤□□⑨ |③-④-|
□⑧⑦⑥ |⑤-⑥⑦|
□②④□ |⑧-⑨-|
52
②□□④ |①-②-|
⑥⑦⑧□ |③-④-|
□□⑤□ |⑤-⑥⑦|
①⑨□③ |⑧-⑨-|
53
③□①□ |①-②-|
□□□⑤ |③-④-|
□□□□ |⑤-⑥⑦|
④□②□ |⑧⑨⑩⑪|

□⑩⑪□
□⑧⑨□
□⑥⑦□
□□□□
54
⑤⑪⑩□ |①-②-|
②□⑥④ |③-④-|
①⑦□③ |⑤-⑥⑦|
□⑨⑧□ |⑧⑨⑩⑪|
55
④□□② |①-②-|
□□⑩⑤ |③-④-|
□⑨⑧□ |⑤-⑥⑦|
③⑦⑥① |⑧⑨⑩-|
56
④□□② |①-②-|
□□□□ |③-④-|
□⑥⑦⑧ |⑤-⑥⑦|
③⑨⑤① |⑧-⑨-|
57
③⑩⑪① |①-②-|
□⑧⑨⑤ |③-④-|
□⑥⑦□ |⑤-⑥⑦|
④□□② |⑧⑨⑩⑪|
58
⑤□□□ |①-②-|
②⑦⑥④ |③-④-|
①⑤□③ |⑤-⑥-|
⑦□□⑥ |⑦---|
59
⑩②①⑨ |①②③④|
⑥⑭⑬⑤ |⑤⑥⑦⑧|
⑧⑫⑪⑦ |⑨⑩⑪⑫|
⑯④③⑮ |⑬⑭⑮⑯|
60
⑩②①⑨ |①②③④|
⑥⑭⑬⑤ |⑤⑥⑦⑧|
⑧⑫⑪⑦ |⑨⑩⑪⑫|
⑯④③⑮ |⑬⑭⑮⑯|
61
⑩②①⑨ |①②③④|
④⑫⑪③ |⑤⑥⑦⑧|
⑥⑭⑬⑤ |⑨⑩⑪⑫|
⑯⑧⑦⑮ |⑬⑭⑮⑯|
62
⑫④③⑪ |①②③④|
②⑩⑨① |⑤⑥⑦⑧|
⑧⑭⑬⑦ |⑨⑩⑪⑫|
⑯⑥⑤⑮ |⑬⑭⑮⑯|
63
⑩②①⑨ |①②③④|
⑥⑭⑬⑤ |⑤⑥⑦⑧|
⑧⑫⑪⑦ |⑨⑩⑪⑫|
⑯④③⑮ |⑬⑭⑮⑯|
64
⑩②①⑨ |①②③④|
⑥⑭⑬⑤ |⑤⑥⑦⑧|
⑧⑫⑪⑦ |⑨⑩⑪⑫|
⑯④③⑮ |⑬⑭⑮⑯|
65
⑩②①⑨ |①②③④|
④⑫⑪③ |⑤⑥⑦⑧|
⑥⑭⑬⑤ |⑨⑩⑪⑫|
⑯⑧⑦⑮ |⑬⑭⑮⑯|
66
⑩④③⑩ |①②③④|
②⑨⑨① |⑤⑥⑦⑧|
⑧□□⑦ |⑨---|
□⑥⑤□ |⑩---|
67
⑮⑯⑭⑬ |①②③④|
⑪⑫⑩⑨ |⑤⑥⑦⑧|
⑦⑧⑥⑤ |⑨⑩⑪⑫|
③④②① |⑬⑭⑮⑯|
68
□□□⑬ |①②③④|
⑪⑫⑩⑨ |⑤⑥⑦⑧|
⑦⑧⑥⑤ |⑨⑩⑪⑫|
③④②① |⑬---|
69
①②⑫⑪ |①②③④|
⑬⑭⑧⑦ |⑤⑥⑦⑧|
⑤⑥⑯⑮ |⑨⑩⑪⑫|
⑨⑩④③ |⑬⑭⑮⑯|
70
①⑥⑦□ |①-②-|
□□④□ |③-④-|
□③□□ |⑤---|
⑤⑧⑨② |⑥⑦⑧⑨|
71
①□□④ |①-②-③-|
⑤⑦⑩② |④-⑤-⑥-|
③⑪⑧⑥ |⑦-⑧-⑨-|
□⑨⑫□ |⑩-⑪-⑫-|
72
①⑦⑩④ |①-②-③-|
⑤⑪⑧② |④-⑤-⑥-|
□□□□ |⑦-⑧-⑨-|
③⑨⑫⑥ |⑩-⑪-⑫-|
73
①⑤⑧④ |①-②-|
□□□⑧ |③-④-|
□⑦③□ |⑤-⑥-|
②□□⑥ |⑦-⑧-|
74
③□□③ |①---|
□③③□ |②---|
②□□□ |③---|
①□□□ |----|
75
□②④□ |①-②-|
⑨⑧⑦⑥ |③-④-|
□□⑩□ |⑤-⑥⑦|
⑤①③□ |⑧⑨⑩-|
76
□②□④ |①-②-|
⑧⑦⑥□ |③-④-|
□⑤□⑨ |⑤-⑥⑦|
□①□③ |⑧-⑨-|
77
□④②□ |①-②-|
⑧⑨⑩⑪ |③-④-|
□⑥⑦□ |⑤-⑥⑦|
□③①⑤ |⑧⑨⑩⑪|
78
①□⑤② |①-②-|
□□□□ |③-④-|
⑨⑧⑦⑥ |⑤-⑥⑦|
③□④⑩ |⑧⑨⑩-|
79
□②④□ |①-②-|
⑨⑧⑦⑥ |③-④-|
□□⑩□ |⑤-⑥⑦|
⑤①③□ |⑧⑨⑩-|
80
□②□④ |①-②-|
⑧⑦⑥□ |③-④-|
□⑤□⑨ |⑤-⑥⑦|
□①□③ |⑧-⑨-|
81
□④②□ |①-②-|
⑧⑨⑩⑪ |③-④-|
□⑥⑦□ |⑤-⑥⑦|
□③①⑤ |⑧⑨⑩⑪|
82
①⑥④□ |①-②-|
⑥⑧⑦□ |③-④-|
⑧□□⑦ |⑤-⑥-|
②⑤③□ |⑦-⑧-|
83
①□□① |①---|
□□□□ |----|
□①①□ |----|
□□□□ |----|
最終更新:2022年08月29日 04:14