アットウィキロゴ
東京テディベア
Neru

BASIC

Level: 2
BPM: 204
Notes: 136

1
口口口口 |----|
口口口口 |----|
口口口口 |----|
口口口口 |----|
2
口口口口 |①---|
口①口口 |----|
口口口口 |----|
口口口口 |----|
3
口口口口 |①---|
口口①口 |----|
口口口口 |----|
口口口口 |----|
4
口口口口 |①---|
口口口口 |----|
口口①口 |----|
口口口口 |----|
5
口口口口 |①---|
口口口口 |----|
口①口口 |----|
口口口口 |----|
6
口口口口 |①---|
口口①口 |----|
口口口口 |----|
口口口口 |----|
7
口口口口 |①---|
口①口口 |----|
口口口口 |----|
口口口口 |----|
8
口口口口 |①---|
口口口口 |----|
口①口口 |----|
口口口口 |----|
9
口口口口 |①---|
口口口口 |----|
口口①口 |----|
口口口口 |----|
10
口口口口 |①---|
口①口口 |----|
口口口口 |----|
口口口口 |----|
11
口口口口 |①---|
口口①口 |----|
口口口口 |----|
口口口口 |----|
12
口口口口 |①---|
口口口口 |----|
口口①口 |----|
口口口口 |----|
13
口口口口 |①---|
口口口口 |----|
口①口口 |----|
口口口口 |----|
14
口口口口 |①---|
口口①口 |----|
口口口口 |----|
口口口口 |----|
15
口口②口 |①---|
口①口口 |----|
口口口口 |②---|
口口口口 |----|
16
口口口口 |①---|
口①口口 |----|
口口②口 |②---|
口口口口 |----|
17
口口口口 |①---|
口口②口 |----|
口口口口 |②---|
口①口口 |----|
18
口口口口 |①---|
①口口口 |----|
口口口口 |----|
口口口口 |----|
19
口①口口 |①---|
口口口口 |----|
口口口口 |----|
口口口口 |----|
20
口口口口 |①---|
口口①口 |----|
口口口口 |----|
口口口口 |----|
21
口口口口 |①---|
口口口口 |----|
口①口口 |----|
口口口口 |----|
22
口口口口 |①---|
口口口① |----|
口口口口 |----|
口口口口 |----|
23
口口①口 |①---|
口口口口 |----|
口口口口 |----|
口口口口 |----|
24
口口口口 |①---|
口①口口 |----|
口口口口 |----|
口口口口 |----|
25
口口口口 |①---|
口口口口 |----|
口口①口 |----|
口口口口 |----|
26
口口口口 |①---|
口口口口 |----|
①口口口 |----|
口口口口 |----|
27
口口口口 |①---|
口口口口 |----|
口①口口 |----|
口口口口 |----|
28
口口口口 |①---|
口口口口 |----|
口口口① |----|
口口口口 |----|
29
口口口口 |①---|
口口口口 |----|
口口①口 |----|
口口口口 |----|
30
口口口口 |①---|
口①口口 |----|
口口口口 |----|
口口口口 |----|
31
口口口口 |①---|
①口口口 |----|
口口口口 |----|
口口口口 |----|
32
口口口口 |①---|
口口①口 |----|
口口口口 |----|
口口口口 |----|
33
口口口口 |①---|
口口口① |----|
口口口口 |----|
口口口口 |----|
34
口①口口 |①---|
口口口口 |----|
口口口口 |----|
口口口口 |----|
35
口口口口 |①---|
口口口口 |----|
口①口口 |----|
口口口口 |----|
36
口口①口 |①---|
口口口口 |----|
口口口口 |----|
口口口口 |----|
37
口口口口 |①---|
②口口口 |----|
口口①口 |②---|
口口口口 |----|
38
口①口口 |①---|
口口口② |----|
口口口口 |②---|
口口口口 |----|
39
口口①口 |①---|
口口口口 |----|
口②口口 |②---|
口口口口 |----|
40
口口口② |①---|
口口③口 |②---|
口④口① |③---|
口口口口 |④---|
41
口口口口 |①---|
口口口口 |----|
口口②口 |②---|
①口口口 |----|
42
口口①口 |①---|
口口口口 |----|
口②口口 |②---|
口口口口 |----|
43
口①口口 |①---|
口口②口 |----|
口口口口 |②---|
口口口口 |----|
44
口口口口 |①---|
口口口口 |----|
口①口口 |②---|
口口②口 |----|
45
口口口口 |①---|
口口口口 |----|
口②口① |②---|
口口口口 |----|
46
口①口口 |①---|
口口口口 |----|
口口②口 |②---|
口口口口 |----|
47
口口①口 |①---|
口②口口 |----|
口口口口 |②---|
口口口口 |----|
48
口口口口 |①---|
口口口口 |----|
②口①口 |②---|
口口口口 |----|
49
口①口口 |①---|
口口口口 |----|
口口②口 |②---|
口口口口 |----|
50
口口①口 |①---|
口口口口 |----|
口②口口 |②---|
口口口口 |----|
51
口①口口 |①---|
口口②口 |----|
口口口口 |②---|
口口口口 |----|
52
口口口口 |①---|
口口口口 |----|
口①口口 |②---|
口口②口 |----|
53
口口口口 |①---|
口②口口 |----|
口口口① |②---|
口口口口 |----|
54
口口①口 |①---|
口口②口 |----|
口口口口 |②---|
口口口口 |----|
55
口①口口 |①---|
②口口口 |----|
口口口口 |②---|
口口口口 |----|
56
口口口口 |①---|
口口口口 |②---|
口①口口 |----|
口口②② |----|
57
口口口口 |----|
③口①口 |①---|
口②口口 |②---|
口口口口 |③---|
58
口口①口 |----|
口口口② |①---|
口口口口 |②---|
口口口口 |----|
59
口口口口 |①---|
口口口口 |----|
口②①口 |②---|
口口口口 |----|
60
口①口口 |①---|
口口②口 |----|
口口口口 |②---|
口口口口 |----|
61
口口口口 |①---|
①口口口 |----|
口口②口 |②---|
口口口口 |----|
62
口口①口 |①---|
口口口口 |----|
口②口口 |②---|
口口口口 |----|
63
口①口口 |①---|
口口②口 |----|
口口口口 |②---|
口口口口 |----|
64
口口口口 |①---|
口口口口 |----|
口①口② |②---|
口口口口 |----|
65
口口①口 |①---|
口口口口 |----|
口②口口 |②---|
口口口口 |----|
66
①口口口 |①---|
口口口口 |----|
口口②口 |②---|
口口口口 |----|
67
口口口① |①---|
口口口口 |----|
口②口口 |②---|
口口口口 |----|
68
①口口② |①---|
口口口口 |----|
口口口口 |②---|
口口口口 |----|
69
口口口口 |①---|
口口②口 |----|
口①①口 |②---|
口口口口 |----|
70
口①口口 |①---|
口②口口 |----|
口口口口 |②---|
口口口口 |----|
71
口口①口 |①---|
口口口② |----|
口口口口 |②---|
口口口口 |----|
72
口口口口 |①---|
口口口口 |②---|
口口①口 |----|
②②口口 |----|
73
口口口口 |----|
口口口口 |----|
口口口口 |----|
口口口口 |----|
74
口口口口 |①---|
口口口① |----|
口口口口 |----|
口口口口 |----|
75
口口①口 |①---|
口口口口 |----|
口口口口 |----|
口口口口 |----|
76
口口口口 |①---|
口①口口 |----|
口口口口 |----|
口口口口 |----|
77
口口口口 |①---|
口口口口 |----|
口口①口 |----|
口口口口 |----|
78
口口口口 |①---|
①口口口 |----|
口口口口 |----|
口口口口 |----|
79
口①口口 |①---|
口口口口 |----|
口口口口 |----|
口口口口 |----|
80
口口口口 |①---|
口口①口 |----|
口口口口 |----|
口口口口 |----|
81
口口口口 |①---|
口口口口 |----|
口①口口 |----|
口口口口 |----|
82
口口口口 |①---|
口口①口 |----|
口口口口 |----|
口口口口 |----|
83
口口口口 |①---|
口①口口 |----|
口口口口 |----|
口口口口 |----|
84
口口口口 |①---|
口口口口 |----|
口①口口 |----|
口口口口 |----|
85
口口口口 |①---|
口口口口 |----|
口口①口 |----|
口口口口 |----|
86
口口口口 |①---|
口①口口 |----|
口口口口 |----|
口口口口 |----|
87
口口口口 |①---|
口口①口 |----|
口口口口 |----|
口口口口 |----|
88
口口口口 |①---|
②②口口 |----|
口口①① |②---|
口口口口 |----|
89
口口①① |①---|
口口口口 |----|
口口口口 |----|
口口口口 |----|

accuracy: 100%
最終更新:2023年07月30日 04:09