アットウィキロゴ
東京テディベア
Neru

ADVANCED

Level: 6
BPM: 204
Notes: 358

1
口口口口 |----|
口口口口 |----|
口口口口 |----|
口口口口 |----|
2
口口②口 |----|
口口口口 |①---|
口①④口 |②---|
口③口口 |③-④-|
3
②口③口 |--①-|
口①口口 |②---|
口口口口 |----|
口口口口 |③---|
4
口口口口 |①---|
②口口④ |②-③-|
口③①⑤ |--④-|
口口⑥口 |⑤-⑥-|
5
口口口口 |----|
口口口口 |----|
口口口口 |----|
口口口口 |----|
6
口口口口 |----|
⑤①②口 |①-②-|
口④口③ |③---|
口口口口 |④-⑤-|
7
口口②口 |--①-|
口口口① |②---|
口口口口 |----|
口③口口 |③---|
8
口口口口 |①---|
④①③口 |②-③-|
⑤口口② |--④-|
口⑥口口 |⑤-⑥-|
9
口口口口 |----|
口口口口 |----|
口口口口 |----|
口口口口 |----|
10
口②口口 |----|
口口口口 |①---|
口④①口 |②---|
口口③口 |③-④-|
11
口③口② |--①-|
口口①口 |②---|
口口口口 |----|
口口口口 |③---|
12
口口口口 |①---|
④口口② |②-③-|
⑤①③口 |--④-|
口⑥口口 |⑤-⑥-|
13
口口口口 |----|
口口口口 |----|
口口口口 |----|
口口口口 |----|
14
口口口口 |----|
口②①⑤ |①-②-|
③口④口 |③---|
口口口口 |④-⑤-|
15
口②口③ |--①-|
①口口口 |②---|
口口口口 |----|
口口口口 |③---|
16
口口口口 |①---|
口⑥③⑥ |②-③-|
④②口① |--④-|
口⑤口口 |⑤-⑥-|
17
①口①口 |----|
口口口口 |----|
口口口口 |----|
口口口口 |①---|
18
口⑤口口 |①---|
口口口② |②---|
口①④口 |③-④-|
口口口③ |--⑤-|
19
口口口口 |----|
口口口③ |①---|
口口口口 |②---|
①口②口 |③---|
20
⑤①口口 |①---|
口口④口 |②---|
口②口③ |③-④-|
口口口口 |--⑤-|
21
口口口③ |--①-|
口口口口 |--②-|
①口②口 |----|
口口口口 |③---|
22
口①⑤口 |①---|
口口口口 |②---|
口②④口 |③-④-|
口口口③ |--⑤-|
23
口④口口 |--①-|
口②口③ |②---|
①口口口 |③---|
口口口口 |④---|
24
口口口口 |①---|
⑤口④口 |②---|
口口①③ |③-④-|
②口口口 |--⑤-|
25
口④口口 |--①-|
口口口口 |--②-|
口口③口 |③---|
口①口② |④---|
26
口口口④ |----|
口③⑤口 |①-②-|
②口口口 |③---|
口①口口 |④-⑤-|
27
口①口口 |--①-|
②口口口 |②---|
口口口口 |----|
口③口口 |③---|
28
口口口④ |①---|
口③①⑤ |②-③-|
②口⑥口 |--④-|
口口口口 |⑤-⑥-|
29
口口口口 |----|
口口口口 |----|
口口口口 |----|
口口口口 |----|
30
④口口口 |----|
口⑤③口 |①-②-|
口口口② |③---|
口口①口 |④-⑤-|
31
口②口口 |--①-|
①口口口 |②---|
口口③口 |----|
口口口口 |③---|
32
⑥口①⑥ |①---|
口口口口 |②-③-|
口③⑤口 |--④-|
②口口④ |⑤-⑥-|
33
口③③口 |----|
口口口口 |----|
口②口口 |--①-|
口①口口 |②-③-|
34
口口口② |----|
口口口① |----|
口口口口 |----|
口口口口 |①-②-|
35
口④口口 |----|
③口口口 |①---|
口口①口 |②---|
②口口口 |③-④-|
36
口口口口 |----|
口口口① |----|
口口②口 |----|
口口口口 |①-②-|
37
口口口口 |--①-|
口口④口 |----|
口③口口 |②---|
①口口② |③-④-|
38
口②口口 |--①-|
①④口口 |②---|
口口口口 |--③-|
口口口③ |--④-|
39
口口②口 |--①-|
口口口① |②---|
⑤口口口 |--③-|
口④③口 |④-⑤-|
40
①口⑥口 |----|
口②口⑥ |①-②-|
口⑤③口 |③-④-|
口口口④ |⑤-⑥-|
41
口口口口 |----|
口口③口 |①---|
①口口② |②-③-|
口④口口 |--④-|
42
①口①口 |----|
口③口口 |①---|
②口口口 |②-③-|
口口④口 |--④-|
43
④①口① |----|
口口③口 |①---|
口②口口 |②-③-|
口口口口 |--④-|
44
口口口① |----|
口②口口 |①---|
口口③口 |②-③-|
④口口口 |--④-|
45
口口口口 |----|
口③口口 |①---|
②口口① |②-③-|
口口④口 |--④-|
46
口①口① |----|
口口③口 |①---|
口口口② |②-③-|
口④口口 |--④-|
47
①口①口 |----|
口口口② |①---|
口口③口 |②-③-|
口④④口 |--④-|
48
②口口② |----|
口①①口 |----|
口口口口 |①---|
口口口口 |--②-|
49
口口口口 |----|
口口③口 |①---|
①口口② |②-③-|
口④口口 |--④-|
50
①口①口 |----|
口③口口 |①---|
②口口口 |②-③-|
口口④口 |--④-|
51
④①口① |----|
口口③口 |①---|
口②口口 |②-③-|
口口口口 |--④-|
52
口口口① |----|
口②口口 |①---|
口口③口 |②-③-|
④口口口 |--④-|
53
④口口口 |----|
口口③口 |①---|
口②口口 |②-③-|
口口口① |--④-|
54
口口口④ |----|
口③口口 |①---|
口口②口 |②-③-|
①口口口 |--④-|
55
④口口口 |----|
口口③口 |①---|
口②口口 |②-③-|
口口口① |--④-|
56
口口②口 |--①-|
口口口口 |②---|
②口①口 |----|
口口口口 |----|
57
口口口口 |----|
口②④口 |①---|
口③口口 |②--③|
口①口口 |--④-|
58
①口口① |----|
口②口口 |①---|
④口③口 |②-③-|
口口口口 |--④-|
59
口①口口 |----|
④口口② |①---|
口口③口 |②-③-|
口口口口 |--④-|
60
②口①口 |----|
口③口口 |①---|
口口口口 |②-③-|
口④口口 |--④-|
61
口口口口 |----|
口口③口 |①---|
①口口② |②-③-|
口④口口 |--④-|
62
①口①口 |----|
口③口口 |①---|
②口口口 |②-③-|
口口④口 |--④-|
63
④①口① |----|
口口③口 |①---|
口②口口 |②-③-|
口口口口 |--④-|
64
口②②口 |----|
口口口① |----|
口口口口 |①---|
口口口口 |--②-|
65
口④口④ |----|
口口口口 |①---|
口口③口 |②-③-|
①口②口 |--④-|
66
④口④口 |----|
口口口口 |①---|
口③口口 |②-③-|
口②口① |--④-|
67
口④口④ |----|
口口口口 |①---|
口口③口 |②-③-|
①口②口 |--④-|
68
口④口口 |----|
①口①③ |①---|
④②口② |②---|
口口③口 |③-④-|
69
口口口④ |----|
口③口口 |①---|
口口②口 |②-③-|
①口口口 |--④-|
70
④口口口 |----|
口口③口 |①---|
口②口口 |②-③-|
口口口① |--④-|
71
口口口④ |----|
口③口口 |①---|
口口②口 |②-③-|
①口口口 |--④-|
72
口②口口 |--①-|
口口口口 |②---|
口①口② |----|
口口口口 |----|
73
口口口口 |----|
口口口口 |----|
口口口口 |----|
口口口口 |----|
74
口口⑤口 |①---|
②口口口 |②---|
口④①口 |③-④-|
③口口口 |--⑤-|
75
口口口口 |----|
③口口口 |①---|
口口口口 |②---|
口②口① |③---|
76
口口①⑤ |①---|
口④口口 |②---|
③口②口 |③-④-|
口口口口 |--⑤-|
77
③口口口 |--①-|
口口口口 |--②-|
口②口① |----|
口口口口 |③---|
78
口⑤①口 |①---|
口口口口 |②---|
口④②口 |③-④-|
③口口口 |--⑤-|
79
口口④口 |--①-|
③口②口 |②---|
口口口① |③---|
口口口口 |④---|
80
口口口口 |①---|
口④口⑤ |②---|
③①口口 |③-④-|
口口口② |--⑤-|
81
口口④口 |--①-|
口口口口 |--②-|
口③口口 |③---|
②口①口 |④---|
82
①④口口 |①---|
口③口口 |②-③-|
口⑥②口 |④---|
口口⑤口 |⑤-⑥-|
83
口③口② |--①-|
口口①口 |②---|
口口口口 |----|
口口口口 |③---|
84
口口口口 |①---|
④口口② |②-③-|
⑤①③口 |--④-|
口⑥口口 |⑤-⑥-|
85
口口口口 |----|
口口口口 |----|
口口口口 |----|
口口口口 |----|
86
口口口口 |----|
口②①⑤ |①-②-|
③口④口 |③---|
口口口口 |④-⑤-|
87
口②口③ |--①-|
①口口口 |②---|
口口口口 |----|
口口口口 |③---|
88
口口口口 |①---|
口⑥③⑥ |②-③-|
④②口① |--④-|
口⑤口口 |⑤-⑥-|
89
口口口口 |----|
口口口口 |----|
口口口口 |----|
口口口口 |----|

accuracy: 100%
最終更新:2023年07月30日 04:31