アットウィキロゴ
東京テディベア
Neru

EXTREME

Level: 8
BPM: 204
Notes: 536

1
口口口口 |----|
口口口口 |----|
口口口口 |----|
口口口口 |----|
2
口口②② |----|
①口口口 |①---|
口口③④ |②---|
口口口口 |③-④-|
3
②②口口 |--①-|
口口①口 |②---|
口③口口 |----|
口口口口 |③---|
4
口口①④ |①---|
②③⑤① |②-③-|
口口口口 |--④-|
口⑥⑥口 |⑤-⑥-|
5
口口口口 |----|
口口口口 |----|
口口口口 |----|
口口口口 |----|
6
口口口口 |----|
口④①口 |①-②-|
口②⑤口 |③---|
口口③③ |④-⑤-|
7
口口口口 |--①-|
口③口口 |②---|
①口口口 |----|
口②口口 |③---|
8
④口①① |①---|
口⑤③口 |②-③-|
口②口口 |--④-|
口⑥⑥口 |⑤-⑥-|
9
口口口口 |----|
口口口口 |----|
口口口口 |----|
口口口口 |----|
10
②②口口 |----|
口口口① |①---|
④③口口 |②---|
口口口口 |③-④-|
11
口口②② |--①-|
口①口口 |②---|
口口③口 |----|
口口口口 |③---|
12
④①口口 |①---|
①⑤③② |②-③-|
口口口口 |--④-|
口⑥⑥口 |⑤-⑥-|
13
口口口口 |----|
口口口口 |----|
口口口口 |----|
口口口口 |----|
14
口口口口 |----|
口①④口 |①-②-|
口⑤②口 |③---|
③③口口 |④-⑤-|
15
口口口口 |--①-|
③④④③ |②---|
口口口① |③---|
③口②③ |④---|
16
①④④① |①---|
⑥口口⑥ |②-③-|
③②②③ |--④-|
口⑤⑤口 |⑤-⑥-|
17
①⑥⑥② |--①-|
口③④口 |②-③-|
⑤口口口 |④-⑤-|
口⑥⑥口 |⑥---|
18
⑤口口口 |①---|
②口④口 |②---|
口③口① |③-④-|
口口口口 |--⑤-|
19
口口口口 |----|
口口口口 |①---|
②口①口 |②---|
口③口口 |③---|
20
口口口口 |①---|
⑤①①⑤ |②---|
口③口② |③-④-|
口口④口 |--⑤-|
21
③口口口 |--①-|
口口②口 |--②-|
口口口口 |----|
口①口口 |③---|
22
⑤②口⑤ |①---|
口口口口 |②---|
①口④① |③-④-|
口③口口 |--⑤-|
23
口④口口 |--①-|
口口口③ |②---|
口①口口 |③---|
口口②口 |④---|
24
口口②口 |①---|
⑤口口⑤ |②---|
①口③① |③-④-|
口④口口 |--⑤-|
25
口口③口 |--①-|
口②口口 |--②-|
口口④口 |③---|
口口①口 |④---|
26
口④口口 |----|
口口⑤口 |①-②-|
①口口③ |③---|
口②口口 |④-⑤-|
27
口口口口 |--①-|
口口口口 |②---|
③①口口 |----|
口口②口 |③---|
28
①口②口 |①---|
口③口口 |②-③-|
口口⑤④ |--④-|
口⑥口口 |⑤-⑥-|
29
口口口口 |----|
口口口口 |----|
口口口口 |----|
口口口口 |----|
30
口③口口 |----|
口⑤②口 |①-②-|
④①口口 |③---|
口口口口 |④-⑤-|
31
③口②口 |--①-|
口口口① |②---|
口口口口 |----|
口口口口 |③---|
32
口⑥⑥② |①---|
口③③口 |②-③-|
④①①⑤ |--④-|
口④⑤口 |⑤-⑥-|
33
③③③③ |----|
口口口口 |----|
口②②口 |--①-|
①口口① |②-③-|
34
口口口口 |----|
口②②口 |----|
口口口口 |----|
口①①口 |①-②-|
35
口②②口 |----|
口口口口 |①---|
①③③① |②---|
口④④口 |③-④-|
36
①口口口 |----|
口②②口 |----|
口口口口 |----|
口口口口 |①-②-|
37
口口口口 |--①-|
口口口口 |----|
口④④口 |②---|
③①①② |③-④-|
38
口口②口 |--①-|
口口口① |②---|
口④④口 |--③-|
口口口③ |--④-|
39
口②口口 |--①-|
①口口口 |②---|
④口口③ |--③-|
口⑤⑤口 |④-⑤-|
40
⑥⑥口① |----|
口⑤②口 |①-②-|
口③⑤口 |③-④-|
④口⑥⑥ |⑤-⑥-|
41
口口③口 |----|
①口口② |①---|
口口口④ |②-③-|
口口④口 |--④-|
42
①①口口 |----|
①口③口 |①---|
④②口口 |②-③-|
口④口口 |--④-|
43
口口①① |----|
口②口① |①---|
④口③④ |②-③-|
口口口口 |--④-|
44
口口①口 |----|
口口②① |①---|
④③口口 |②-③-|
口④口口 |--④-|
45
口口口口 |----|
①③口口 |①---|
④口②口 |②-③-|
口④口口 |--④-|
46
口口①① |----|
口口③① |①---|
口②口④ |②-③-|
口口④口 |--④-|
47
①①口④ |----|
①②口口 |①---|
口口③④ |②-③-|
口口口④ |--④-|
48
口口②口 |----|
口①②② |----|
①①②口 |①---|
①①②② |--②-|
49
③口口① |----|
口②口口 |①---|
④口口口 |②-③-|
口④口口 |--④-|
50
口口①① |----|
口口③① |①---|
口②口④ |②-③-|
口口④口 |--④-|
51
①①④口 |----|
①②口④ |①---|
口口③口 |②-③-|
口口口口 |--④-|
52
口口口① |----|
口②口口 |①---|
④口③口 |②-③-|
口④口口 |--④-|
53
①口④口 |----|
口口③④ |①---|
口②口口 |②-③-|
口口口口 |--④-|
54
口④口① |----|
④③口口 |①---|
口口②口 |②-③-|
口口口口 |--④-|
55
①口口④ |----|
口口③口 |①---|
口②口口 |②-③-|
④口口① |--④-|
56
口②口口 |--①-|
②①口口 |②---|
口口①② |----|
口口②口 |----|
57
④②②④ |----|
口③③口 |①---|
④②②④ |②--③|
口①①口 |--④-|
58
口②②口 |----|
①③③① |①---|
④口口④ |②-③-|
口①①口 |--④-|
59
①口口① |----|
口口口口 |①---|
④②口④ |②-③-|
口口③口 |--④-|
60
口①①口 |----|
口③②口 |①---|
口口口口 |②-③-|
口④④口 |--④-|
61
口口口① |----|
口口③口 |①---|
口②口④ |②-③-|
口口④口 |--④-|
62
①①口口 |----|
①③口口 |①---|
④口②口 |②-③-|
口④口口 |--④-|
63
④④①① |----|
④口③① |①---|
口②口④ |②-③-|
口口④④ |--④-|
64
②口①① |----|
口②②① |----|
①②②口 |①---|
①①口② |--②-|
65
口④③口 |----|
①口口② |①---|
口口口④ |②-③-|
口口口口 |--④-|
66
④口⑤口 |----|
口②①③ |①---|
⑤①②口 |②-③-|
口口口④ |④-⑤-|
67
④⑤口口 |----|
⑤③①口 |①---|
口①②口 |②-③-|
口②口④ |④-⑤-|
68
口口②① |①---|
口⑤⑤② |②---|
④⑤⑤③ |③---|
①④③口 |④-⑤-|
69
口④④口 |----|
口口口口 |①---|
口口口③ |②-③-|
①口②口 |--④-|
70
口④④口 |----|
口口口口 |①---|
③口口口 |②-③-|
口②口① |--④-|
71
④口口① |----|
口③②口 |①---|
口②③口 |②-③-|
①口口④ |--④-|
72
口①口② |--①-|
②口口口 |②---|
口口口② |----|
②口①口 |----|
73
口口口口 |----|
口口口口 |----|
口口口口 |----|
口口口口 |----|
74
口⑤口口 |①---|
②口④口 |②---|
口③口① |③-④-|
口①⑤口 |--⑤-|
75
口口口① |----|
②口③口 |①---|
口③口② |②---|
①口口口 |③---|
76
口口⑤口 |①---|
口④口② |②---|
①口③口 |③-④-|
口⑤①口 |--⑤-|
77
①口口口 |--①-|
口③口② |--②-|
②口③口 |----|
口口口① |③---|
78
口⑤口口 |①---|
②口④口 |②---|
口③口① |③-④-|
口①⑤口 |--⑤-|
79
口口③口 |--①-|
④②口④ |②---|
④口①④ |③---|
口③口口 |④---|
80
口①⑤② |①---|
口④口口 |②---|
口口③口 |③-④-|
②⑤①口 |--⑤-|
81
①④口口 |--①-|
口口③口 |--②-|
口②口口 |③---|
口口④① |④---|
82
⑤口口④ |①---|
①③⑥① |②-③-|
①⑥②① |④---|
口口口口 |⑤-⑥-|
83
口口口口 |--①-|
口口口③ |②---|
①口口口 |----|
口②②口 |③---|
84
口口口口 |①---|
口口④口 |②-③-|
②①①⑤ |--④-|
⑥③⑥口 |⑤-⑥-|
85
口口口口 |----|
口口口口 |----|
口口口口 |----|
口口口口 |----|
86
口口口④ |----|
口③⑤口 |①-②-|
①⑤②口 |③---|
口口口口 |④-⑤-|
87
口②口口 |--①-|
①口口口 |②---|
口口口口 |----|
口口口③ |③---|
88
⑥③③⑥ |①---|
②⑤①① |②-③-|
⑥口④⑥ |--④-|
口口口口 |⑤-⑥-|
89
口口口口 |----|
口口口口 |----|
口口口口 |----|
口口口口 |----|

accuracy: 100%
最終更新:2023年07月30日 04:31