アットウィキロゴ
New World

BPM:195
1
□□□□ |----|
□□□□ |----|
□□□□ |----|
□□□□ |----|
2
□□④□ |①-②-|
③⑦□□ |③-④-|
⑤⑤②□ |⑤-⑥-|
①□⑧⑥ |⑦-⑧-|
3
①①④□ |①-②-|
③□⑧□ |③-④-|
□⑦②□ |⑤-⑥-|
⑤⑤□⑥ |⑦-⑧-|
4
①①□⑧ |①-②-|
□□□② |③-④-|
③⑦⑥□ |⑤-⑥-|
□⑤④□ |⑦-⑧-|
5
□⑤□□ |①-②-|
①①⑥□ |③-④-|
□⑦□② |⑤-⑥-|
③□⑧④ |⑦-⑧-|
6
①□④⑥ |①-②-|
⑦③□□ |③-④-|
①□②⑧ |⑤-⑥-|
⑤□□□ |⑦-⑧-|
7
□⑤⑥□ |①-②-|
□⑦④② |③-④-|
□③⑧□ |⑤-⑥-|
□①□□ |⑦-⑧-|
8
□⑤□④ |①-②-|
③□⑥□ |③-④-|
□⑦□② |⑤-⑥-|
①①⑧□ |⑦-⑧-|
9
①□②⑧ |①-②-|
⑦①□□ |③-④-|
③□□⑥ |⑤-⑥-|
□⑤□④ |⑦-⑧-|
10
⑦□□□ |①-②-|
⑦①③② |③-④-|
④①□⑧ |⑤-⑥-|
④□⑥⑤ |⑦-⑧-|
11
□②④③ |①-②-|
□②⑧□ |③-④-|
□⑦①□ |⑤-⑥-|
□⑤⑥□ |⑦-⑧-|
12
①□⑥⑤ |①-②-|
①□□⑧ |③-④-|
④⑦③② |⑤-⑥-|
④⑦□□ |⑦-⑧-|
13
②⑦□⑧ |①-②-|
②⑦①□ |③-④-|
□□④③ |⑤-⑥-|
⑤□⑥□ |⑦-⑧-|
14
①□□⑧ |①-②-|
①□③② |③-④-|
⑦④⑥⑤ |⑤-⑥-|
⑦④□□ |⑦-⑧-|
15
②□①□ |①-②-|
②□④③ |③-④-|
□⑦⑥□ |⑤-⑥-|
□⑤⑧□ |⑦-⑧-|
16
①①⑤□ |①-②-|
□□□⑤ |--③-|
□□④□ |--④-|
②③□□ |--⑤-|
17
□□□□ |----|
□□③□ |----|
□②□□ |--①-|
①□□□ |②-③-|
18
③②□⑤ |①---|
②③⑤□ |②-③-|
□□□④ |--④-|
□□④① |--⑤-|
19
⑤□④□ |--①-|
③□□④ |--②-|
①③②□ |③-④-|
□①□② |⑤---|
20
④□⑤□ |①---|
④①□⑤ |②-③-|
③□□② |--④-|
①③②□ |--⑤-|
21
□□□□ |--①-|
□④□□ |--②-|
□①②□ |③---|
①③□② |④---|
22
□①④□ |①---|
□④①□ |②-③-|
⑤②③① |--④-|
②⑤□③ |--⑤-|
23
②②□□ |--①-|
□□①□ |--②-|
□□□① |③---|
□④③④ |④---|
24
□④①□ |①---|
□□④① |②-③-|
□⑤②□ |④---|
③□⑥□ |⑤-⑥-|
25
①□□③ |①---|
□①⑥□ |②-③-|
④□②□ |④---|
□④⑤⑥ |⑤-⑥-|
26
□①③⑤ |①---|
①□⑤③ |②-③-|
□②④□ |--④-|
②□④□ |--⑤-|
27
□□②⑥ |--①-|
⑤□⑥② |--②-|
□③④① |③-④-|
③□④① |⑤-⑥-|
28
①□③⑤ |①---|
□①□③ |②-③-|
②□⑤④ |--④-|
□②④□ |--⑤-|
29
③④②□ |--①-|
□③①② |--②-|
④□□□ |③---|
□□□① |④---|
30
③□③□ |①---|
①③□□ |②---|
□①②□ |③---|
①□□④ |④---|
31
□①□③ |①---|
①□③□ |②---|
④①□③ |③---|
□②□□ |④---|
32
□□③□ |①---|
④□□③ |②---|
□②□□ |③---|
□□①① |④---|
33
②□□□ |①---|
□□□□ |----|
□□□□ |②---|
□①①③ |③---|
34
□①③③ |①---|
①②①□ |②---|
□①□□ |③---|
④□□□ |④---|
35
②□□④ |①---|
□□□□ |②---|
□□□① |③---|
□③③① |④---|
36
□□□□ |①---|
③④③□ |②---|
①②①□ |③---|
□□□□ |④---|
37
①□①③ |①---|
□□□□ |----|
②□□□ |②---|
②□□□ |③---|
38
③③□□ |①---|
□□①□ |②---|
□①②① |③---|
□④①□ |④---|
39
④□③③ |①---|
□□□① |②---|
□□□① |③---|
②□□□ |④---|
40
□□□□ |①---|
□□□□ |②---|
□③④③ |③---|
□①②① |④---|
41
□③□③ |①---|
□①②① |②---|
□□□□ |③---|
□□□□ |----|
42
□④②□ |①---|
□□□□ |②---|
□□□③ |③---|
①③①③ |④---|
43
④□□② |①---|
①③□③ |②---|
①□①③ |③---|
□□□□ |④---|
44
□□□□ |①---|
□□□□ |②---|
③④③□ |③---|
①②①□ |④---|
45
④□□③ |①---|
①②①□ |②-③-|
□□□□ |----|
□□□□ |④---|
46
□□□□ |①-②-|
□□⑧⑦ |③-④-|
④⑤⑥□ |⑤-⑥-|
□③②① |⑦-⑧-|
47
②③④□ |①-②-|
□①□□ |③-④-|
□⑥□⑧ |⑤-⑥-|
⑤□⑦□ |⑦-⑧-|
48
②□□③ |①---|
□□□□ |②-③-|
□□①□ |--④-|
③①□② |--⑤-|

□④⑤□
⑤□□④
④□□⑤
□⑤④□
49
□□□□ |----|
□②□□ |----|
□□②□ |①---|
①□□① |②---|
50
□②□① |①---|
②□①□ |②---|
①□④③ |③---|
④①③□ |④---|
51
①□①③ |①---|
④□□□ |②---|
□③□□ |③---|
□②④② |④---|
52
③②③□ |①---|
□④①④ |②---|
□□□② |③---|
①□□□ |④---|
53
□□□④ |①---|
③□□□ |②---|
①□①④ |③---|
③□□② |④---|
54
⑧①⑤⑧ |①-②-|
□⑥②□ |③-④-|
□③□⑦ |⑤-⑥-|
□□④□ |⑦-⑧-|
55
④③②④ |--①-|
②③②③ |--②-|
④□□④ |--③-|
①②③① |--④-|
56
□□□⑤ |----|
①□⑤□ |①-②-|
□③②□ |③---|
③④□② |④-⑤-|
57
①□②□ |①---|
③①□④ |②-③-|
□□□□ |④-⑤⑥|
③□□④ |⑦-⑧-|

⑧□□□
□□□□
□⑥⑦□
□□⑤□
58
□②□① |①---|
②□①□ |②---|
①□④③ |③---|
④①③□ |④---|
59
①□①③ |①---|
④□□□ |②---|
□③□□ |③---|
□②④② |④---|
60
①④①④ |①---|
□②□② |②---|
③□③□ |③---|
□□□□ |④---|
61
□□□④ |①---|
③□□□ |②---|
□□□④ |③---|
③①①② |④---|
62
①⑤□⑧ |①-②-|
⑦①④② |③-④-|
⑤□②⑧ |⑤-⑥-|
⑦③⑥④ |⑦-⑧-|
63
③□④□ |①-②-|
□③□② |③-④-|
⑤①②□ |⑤---|
⑥⑤⑥□ |⑥---|
64
□①□① |①---|
③□④② |②-③-|
③⑤□② |--④-|
□□⑥□ |⑤-⑥-|
65
□□①□ |----|
□□□① |----|
①□□□ |①---|
□①□□ |----|
66
□①□③ |①---|
①□④□ |②-③-|
⑤②□① |④---|
□□①□ |⑤---|
67
□□⑤□ |①---|
□④□□ |②---|
□□③□ |③---|
□①□② |④-⑤-|
68
□□□④ |①---|
□□③□ |②---|
□②□□ |③---|
①□□□ |④---|
69
①□□□ |①---|
③□□□ |②-③-|
⑥④□□ |④-⑤-|
□⑦⑤② |⑥-⑦-|
70
③⑤□② |①---|
□□□□ |②---|
□⑤□□ |③---|
①□□④ |④-⑤-|
71
□□①□ |--①-|
④②③④ |--②-|
□□①□ |--③-|
②④④③ |--④-|
72
□⑥②② |--①-|
⑥③□□ |②---|
□①④□ |③-④-|
⑤□□□ |⑤-⑥-|
73
□□③□ |--①-|
□□⑤③ |--②-|
②④□① |--③-|
□②①□ |④-⑤-|
74
□□□□ |①---|
①④□□ |②---|
□□③□ |③---|
①□□② |④---|
75
□□□① |①---|
□□②□ |②---|
□③□□ |③---|
④□□□ |④---|
76
①□□③ |①---|
□②□□ |②-③-|
□□④□ |④---|
□□□⑤ |⑤---|
77
⑤①□□ |①-②-|
□□②⑥ |③-④-|
⑦③□□ |⑤-⑥-|
□□④⑧ |⑦-⑧-|
78
⑦□⑥⑤ |①-②-|
①④□□ |③-④-|
⑦□③② |⑤-⑥-|
①④□⑧ |⑦-⑧-|
79
□②□⑧ |①-②-|
⑤⑦④③ |③-④-|
□②□⑥ |⑤-⑥-|
⑤⑦①□ |⑦-⑧-|
80
①①□□ |①-②-|
□□□④ |③-④-|
□□③□ |⑤-⑥-|
□□□② |⑦-⑧-|

⑧⑧⑧⑧
□□□□
⑤□□⑥
⑤⑦□□
81
□⑤⑤□ |----|
□②□□ |----|
⑤□③⑤ |①-②③|
□④□① |④-⑤-|
82
□□□□ |----|
□□□□ |----|
□□□□ |----|
□□□□ |----|
83
□□□□ |----|
□□□□ |----|
□□□□ |----|
□□□□ |----|
84
□□□□ |----|
□□□□ |----|
□□□□ |----|
□□□□ |----|
85
□□□□ |----|
□□□□ |----|
□□□□ |----|
□□□□ |----|
86
□□□□ |----|
□□□□ |----|
□□□□ |----|
□□□□ |----|
87
□□□□ |----|
□□□□ |----|
□□□□ |----|
□□□□ |----|
88
□□□□ |----|
□□□□ |----|
□□□□ |----|
□□□□ |----|
89
□□□□ |----|
□□□□ |----|
□□□□ |----|
□□□□ |----|
最終更新:2022年08月29日 04:21