アットウィキロゴ
ネトゲ廃人シュプレヒコール
さつき が てんこもり

BASIC

Level: 2
BPM: 175
Notes: 164

1
口口口口 |----|
口口口口 |----|
口口口口 |----|
口口口口 |----|
2
口口口口 |----|
口口口口 |----|
口口口口 |----|
口口口口 |----|
3
口口口口 |----|
口口口口 |----|
口口口口 |----|
口口口口 |----|
4
口口口口 |----|
口口口口 |----|
口口口口 |----|
口口口口 |----|
5
口①口口 |①---|
口口口口 |----|
口口口口 |----|
口口口口 |----|
6
口口①口 |①---|
口口口口 |----|
口口口口 |----|
口口口口 |----|
7
口口口口 |①---|
口①口口 |----|
口口口口 |----|
口口口口 |----|
8
口口口口 |①---|
口口①口 |----|
口口口口 |----|
口口口口 |----|
9
口①口口 |①---|
口口口口 |----|
口口口口 |----|
口口口口 |----|
10
口口①口 |①---|
口口口口 |----|
口口口口 |----|
口口口口 |----|
11
口口口口 |①---|
口①口口 |----|
口口口口 |----|
口口口口 |----|
12
口口口口 |①---|
口口①口 |----|
口口口口 |----|
口口口口 |----|
13
口口②① |①---|
口口口口 |----|
口口口口 |②---|
口口口口 |----|
14
②①口口 |①---|
口口口口 |----|
口口口口 |②---|
口口口口 |----|
15
口口口口 |①---|
口①②口 |----|
口口口口 |②---|
口口口口 |----|
16
口口口口 |①---|
②口口② |----|
口①①口 |②---|
口口口口 |----|
17
口①②口 |①---|
口口口口 |----|
口口口口 |②---|
口口口口 |----|
18
口口口口 |①---|
口②①口 |----|
口口口口 |②---|
口口口口 |----|
19
口口口口 |①---|
口口口口 |----|
口①②口 |②---|
口口口口 |----|
20
口口口口 |①---|
②①①② |----|
口口口口 |②---|
口口口口 |----|
21
①②口口 |①---|
口口口口 |----|
口口口口 |②---|
口口口口 |----|
22
口口①② |①---|
口口口口 |----|
口口口口 |②---|
口口口口 |----|
23
口口口口 |①---|
口②①口 |----|
口口口口 |②---|
口口口口 |----|
24
口口口口 |①---|
②口口② |----|
口①①口 |②---|
口口口口 |----|
25
口②①口 |①---|
口口口口 |----|
口口口口 |②---|
口口口口 |----|
26
口口口口 |①---|
口①②口 |----|
口口口口 |②---|
口口口口 |----|
27
口口口口 |①---|
口口口口 |----|
口②①口 |②---|
口口口口 |----|
28
口口口口 |①---|
②①①② |----|
口口口口 |②---|
口口口口 |----|
29
口口口口 |①---|
口口口口 |----|
①①①① |----|
口口口口 |----|
30
口口口口 |①---|
口①口口 |----|
口口口口 |----|
口口口口 |----|
31
口口口口 |①---|
口口①口 |----|
口口口口 |----|
口口口口 |----|
32
口口口口 |①---|
口口口口 |----|
口口①口 |----|
口口口口 |----|
33
口口口口 |①---|
口口口口 |----|
口①口口 |----|
口口口口 |----|
34
口口口口 |①---|
口①口口 |----|
口口口口 |----|
口口口口 |----|
35
口口口口 |①---|
口口①口 |----|
口口口口 |----|
口口口口 |----|
36
口口口口 |①---|
口口口口 |----|
口口①口 |----|
口口口口 |----|
37
口口口口 |①---|
口口口口 |----|
口①口口 |----|
口口口口 |----|
38
口口口口 |①---|
口口口口 |----|
口口口口 |----|
口①口口 |----|
39
口口口口 |①---|
口口口口 |----|
口①①口 |----|
口口口口 |----|
40
口口口口 |①---|
口口口口 |----|
口口口口 |----|
口口①口 |----|
41
口口口口 |①---|
口口口口 |----|
口①①口 |----|
口口口口 |----|
42
口口口口 |①---|
口口口口 |----|
口口口口 |②---|
口①②口 |----|
43
口口口口 |①---|
口口口口 |----|
口②①口 |②---|
口口口口 |----|
44
口口口口 |①---|
口①②口 |----|
口口口口 |②---|
口口口口 |----|
45
口口口口 |①---|
②口口② |----|
口①①口 |②---|
口口口口 |----|
46
①②口口 |①---|
口口口口 |----|
口口口口 |②---|
口口口口 |----|
47
口口口口 |①---|
口①②口 |----|
口口口口 |②---|
口口口口 |----|
48
口①①口 |①---|
口口口口 |----|
口口口口 |----|
口口口口 |----|
49
口口口口 |----|
口口口口 |----|
口口口口 |----|
口口口口 |----|
50
口口②① |①---|
口口口口 |----|
口口口口 |②---|
口口口口 |----|
51
口口口口 |①---|
口②①口 |----|
口口口口 |②---|
口口口口 |----|
52
口口口口 |①---|
口口口口 |----|
②①①② |②---|
口口口口 |----|
53
口口口口 |①---|
②①①② |----|
口口口口 |②---|
口口口口 |----|
54
①②口口 |①---|
口口口口 |----|
口口口口 |②---|
口口口口 |----|
55
口口口口 |①---|
口①②口 |----|
口口口口 |②---|
口口口口 |----|
56
口①①口 |①---|
口口口口 |----|
口口口口 |----|
口口口口 |----|
57
口口口口 |----|
口口口口 |----|
口口口口 |----|
口口口口 |----|
58
口口②① |①---|
口口口口 |----|
口口口口 |②---|
口口口口 |----|
59
口口口口 |①---|
口②①口 |----|
口口口口 |②---|
口口口口 |----|
60
口口口口 |①---|
口口口口 |----|
②①①② |②---|
口口口口 |----|
61
口口口口 |①---|
②①①② |----|
口口口口 |②---|
口口口口 |----|
62
口口②① |①---|
口口口口 |----|
口口口口 |②---|
口口口口 |----|
63
②①口口 |①---|
口口口口 |----|
口口口口 |②---|
口口口口 |----|
64
口口口口 |①---|
口①②口 |----|
口口口口 |②---|
口口口口 |----|
65
口口口口 |①---|
②口口② |----|
口①①口 |②---|
口口口口 |----|
66
口①②口 |①---|
口口口口 |----|
口口口口 |②---|
口口口口 |----|
67
口口口口 |①---|
口②①口 |----|
口口口口 |②---|
口口口口 |----|
68
口口口口 |①---|
口口口口 |----|
口①②口 |②---|
口口口口 |----|
69
口口口口 |①---|
②①①② |----|
口口口口 |②---|
口口口口 |----|
70
①②口口 |①---|
口口口口 |----|
口口口口 |②---|
口口口口 |----|
71
口口①② |①---|
口口口口 |----|
口口口口 |②---|
口口口口 |----|
72
口口口口 |①---|
口②①口 |----|
口口口口 |②---|
口口口口 |----|
73
口口口口 |①---|
②口口② |----|
口①①口 |②---|
口口口口 |----|
74
口②①口 |①---|
口口口口 |----|
口口口口 |②---|
口口口口 |----|
75
口口口口 |①---|
口①②口 |----|
口口口口 |②---|
口口口口 |----|
76
口口口口 |①---|
口口口口 |----|
口②①口 |②---|
口口口口 |----|
77
口口口口 |①---|
②①①② |----|
口口口口 |②---|
口口口口 |----|
78
口口口口 |①---|
口口口口 |----|
①①①① |----|
口口口口 |----|
79
口口口口 |①---|
口①口口 |----|
口口口口 |----|
口口口口 |----|
80
口口口口 |①---|
口口①口 |----|
口口口口 |----|
口口口口 |----|
81
口口口口 |①---|
口口口口 |----|
口口①口 |----|
口口口口 |----|
82
口口口口 |①---|
口口口口 |----|
口①口口 |----|
口口口口 |----|
83
口口口口 |①---|
口①口口 |----|
口口口口 |----|
口口口口 |----|
84
口口口口 |①---|
口口①口 |----|
口口口口 |----|
口口口口 |----|
85
口口口口 |①---|
口口口口 |----|
口口①口 |----|
口口口口 |----|
86
口口口口 |①---|
口口口口 |----|
口①口口 |----|
口口口口 |----|

accuracy: 100%
最終更新:2023年08月04日 03:14