アットウィキロゴ
ネトゲ廃人シュプレヒコール
さつき が てんこもり

ADVANCED

Level: 6
BPM: 175
Notes: 398

1
口口口口 |----|
口口口口 |----|
口口口口 |----|
口口口口 |----|
2
口口口口 |----|
口口口口 |----|
口口口口 |----|
口口口口 |----|
3
口口口口 |----|
口口口口 |----|
口口口口 |----|
口口口口 |----|
4
口口口口 |----|
口口口口 |----|
口口口口 |----|
口口口口 |----|
5
口④④口 |①---|
①口口② |②---|
口③③口 |③---|
口口口口 |--④-|
6
口口口口 |----|
口口口口 |①---|
口口口口 |②---|
口①②③ |③---|
7
口④④口 |①---|
②口口③ |--②-|
口①①口 |--③-|
口口口口 |--④-|
8
口口口口 |----|
口口口口 |①---|
口口口口 |②---|
③②①口 |③---|
9
口④④口 |①---|
②口口① |②---|
口③③口 |③---|
口口口口 |--④-|
10
口口口口 |----|
口口口口 |①---|
口口口口 |②---|
口①②③ |③---|
11
口④④口 |①---|
③口口② |--②-|
口①①口 |--③-|
口口口口 |--④-|
12
口口口口 |----|
口口口口 |①---|
口口口口 |②---|
③②①口 |③---|
13
①口口② |①---|
口③④口 |②---|
口⑤⑥口 |③-④-|
口口口口 |⑤-⑥-|
14
口④④口 |①---|
①③③① |--②-|
口口口口 |--③-|
②口口② |--④-|
15
②口口② |--①-|
①口③① |--②-|
口④口口 |--③-|
口口⑤口 |④-⑤-|
16
口③③口 |①-②-|
口口口口 |--③-|
口④②口 |--④-|
口①⑤口 |⑤---|
17
口③③口 |①---|
①④④① |②---|
②口口② |③---|
口口口口 |④---|
18
①⑤口① |①---|
口口④口 |--②-|
口③口口 |--③-|
②口口② |④-⑤-|
19
口口③口 |--①-|
④②口⑤ |②-③-|
⑥口①⑦ |④-⑤-|
口口口口 |⑥-⑦-|
20
口②②口 |①---|
口②②口 |--②-|
口口口口 |----|
口①①口 |----|
21
②口口① |①---|
口④③口 |②---|
口⑥⑤口 |③-④-|
口口口口 |⑤-⑥-|
22
口④④口 |①---|
①③③① |--②-|
口口口口 |--③-|
②口口② |--④-|
23
②口口② |--①-|
①③口① |--②-|
口口④口 |--③-|
口⑤口口 |④-⑤-|
24
口③③口 |①-②-|
口口口口 |--③-|
口②④口 |--④-|
口⑤①口 |⑤---|
25
口③③口 |①---|
①④④① |②---|
②口口② |③---|
口口口口 |④---|
26
①口⑤① |①---|
口④口口 |--②-|
口口③口 |--③-|
②口口② |④-⑤-|
27
⑦③口⑥ |--①-|
⑤口②④ |②-③-|
口①口口 |④-⑤-|
口口口口 |⑥-⑦-|
28
口②口口 |--①-|
口口③口 |--②-|
①④口① |③-④-|
口口⑤口 |⑤---|
29
口口口口 |①---|
①口口① |----|
口口口口 |----|
口口口口 |----|
30
①口口口 |①---|
口口口② |--②-|
口③口口 |--③-|
口口口④ |--④-|
31
口口口口 |----|
口口口口 |----|
口口口口 |----|
口口口口 |----|
32
口口口① |①---|
②口口口 |--②-|
口口③口 |--③-|
④口口口 |--④-|
33
口口口口 |----|
口口口口 |----|
口口口口 |----|
口口口口 |----|
34
①口口口 |①---|
口口口② |--②-|
口③口口 |--③-|
口口口④ |--④-|
35
口口口口 |----|
口口口口 |----|
口口口口 |----|
口口口口 |----|
36
口口口① |①---|
②口口口 |--②-|
口口③口 |--③-|
④口口口 |--④-|
37
口口口口 |----|
口口口口 |----|
口口口口 |----|
口口口口 |----|
38
口口口口 |----|
①口口口 |①---|
口③④口 |②---|
口口口② |③-④-|
39
④口口④ |--①-|
①口③口 |--②-|
口口口② |③---|
口口口口 |④---|
40
口口口口 |----|
口口口① |①---|
口⑤④口 |②-③-|
口②③口 |④-⑤-|
41
④口口④ |--①-|
口③口① |--②-|
②口口口 |③---|
口口口口 |④---|
42
口口口口 |--①-|
口口口口 |②-③-|
口①⑤口 |④-⑤-|
⑥②③④ |--⑥-|
43
口⑤③口 |①---|
④口口② |②-③-|
口①口口 |--④-|
口口口口 |⑤---|
44
口③②口 |----|
口⑤④口 |①---|
①口口① |②-③-|
口口口口 |④-⑤-|
45
②口口② |--①-|
口口口口 |--②-|
口口口口 |----|
①口口① |----|
46
口①②口 |----|
口③口口 |①-②-|
口口口口 |③---|
口⑤④口 |④-⑤-|
47
⑥口口⑥ |①-②-|
口④③口 |③-④-|
⑤②①⑤ |--⑤-|
口口口口 |--⑥-|
48
口口口口 |----|
口口口口 |----|
口口口口 |----|
口口口口 |----|
49
口口口口 |----|
口口口口 |----|
口口口口 |----|
口口口口 |----|
50
①口口① |----|
口②②口 |①---|
③口口③ |②---|
口口④口 |③-④-|
51
口③③口 |①-②-|
口口口口 |--③-|
④口②⑤ |--④-|
口①口口 |--⑤-|
52
口口②口 |①---|
口口②口 |----|
口①口口 |②---|
口①口口 |----|
53
口②口口 |①---|
口②口口 |----|
口口①口 |②---|
口口①口 |----|
54
口②①口 |----|
口口③口 |①-②-|
口口口口 |③---|
口④⑤口 |④-⑤-|
55
⑤③②⑤ |①---|
口口口口 |②-③-|
④①口④ |--④-|
口口口口 |--⑤-|
56
口口口口 |----|
口口口口 |----|
口口口口 |----|
口口口口 |----|
57
口口口口 |----|
口口口口 |----|
口口口口 |----|
口口口口 |----|
58
③①①③ |----|
②口口② |①---|
口口口口 |②---|
口口口口 |③---|
59
口口口口 |①-②-|
口④③口 |③-④-|
⑥②①⑤ |--⑤-|
口口口口 |--⑥-|
60
口②口口 |①---|
口②口口 |----|
口口①口 |②---|
口口①口 |----|
61
口口②口 |①---|
口口②口 |----|
口①口口 |②---|
口①口口 |----|
62
①口口② |①---|
口③④口 |②---|
口⑤⑥口 |③-④-|
口口口口 |⑤-⑥-|
63
口④④口 |①---|
①③③① |--②-|
口口口口 |--③-|
②口口② |--④-|
64
②口口② |--①-|
①口③① |--②-|
口④口口 |--③-|
口口⑤口 |④-⑤-|
65
口③③口 |①-②-|
口口口口 |--③-|
口④②口 |--④-|
口①⑤口 |⑤---|
66
口③③口 |①---|
①④④① |②---|
②口口② |③---|
口口口口 |④---|
67
①⑤口① |①---|
口口④口 |--②-|
口③口口 |--③-|
②口口② |④-⑤-|
68
口口③口 |--①-|
④②口⑤ |②-③-|
⑥口①⑦ |④-⑤-|
口口口口 |⑥-⑦-|
69
口②②口 |①---|
口②②口 |--②-|
口口口口 |----|
口①①口 |----|
70
②口口① |①---|
口④③口 |②---|
口⑥⑤口 |③-④-|
口口口口 |⑤-⑥-|
71
口④④口 |①---|
①③③① |--②-|
口口口口 |--③-|
②口口② |--④-|
72
②口口② |--①-|
①③口① |--②-|
口口④口 |--③-|
口⑤口口 |④-⑤-|
73
口③③口 |①-②-|
口口口口 |--③-|
口②④口 |--④-|
口⑤①口 |⑤---|
74
口③③口 |①---|
①④④① |②---|
②口口② |③---|
口口口口 |④---|
75
①口⑤① |①---|
口④口口 |--②-|
口口③口 |--③-|
②口口② |④-⑤-|
76
⑦③口⑥ |--①-|
⑤口②④ |②-③-|
口①口口 |④-⑤-|
口口口口 |⑥-⑦-|
77
口②口口 |--①-|
口口③口 |--②-|
①④口① |③-④-|
口口⑤口 |⑤---|
78
口口口口 |①---|
①口口① |----|
口口口口 |----|
口口口口 |----|
79
①口口口 |①---|
口口口② |--②-|
口③口口 |--③-|
口口口④ |--④-|
80
口口口口 |----|
口口口口 |----|
口口口口 |----|
口口口口 |----|
81
口口口① |①---|
②口口口 |--②-|
口口③口 |--③-|
④口口口 |--④-|
82
口口口口 |----|
口口口口 |----|
口口口口 |----|
口口口口 |----|
83
①口口口 |①---|
口口口② |--②-|
口③口口 |--③-|
口口口④ |--④-|
84
口口口口 |----|
口口口口 |----|
口口口口 |----|
口口口口 |----|
85
口口口① |①---|
②口口口 |--②-|
口口③口 |--③-|
④口口口 |--④-|
86
口口口口 |----|
口口口口 |----|
口口口口 |----|
口口口口 |----|

accuracy: 100%
最終更新:2023年08月04日 03:22