アットウィキロゴ
ネトゲ廃人シュプレヒコール
さつき が てんこもり

EXTREME

Level: 8
BPM: 175
Notes: 633

1
口口口口 |----|
口口口口 |----|
口口口口 |----|
口口口口 |----|
2
口口口口 |----|
口口口口 |----|
口口口口 |----|
口口口口 |----|
3
口口口口 |----|
口口口口 |----|
口口口口 |----|
口口口口 |----|
4
口口口口 |----|
口口口口 |----|
口口口口 |----|
口口口口 |----|
5
①⑤口② |①---|
口③口口 |②---|
口口④口 |③-④-|
②口⑤① |--⑤-|
6
②口口① |--①-|
口口口口 |②---|
④口口③ |③---|
口③④口 |④---|
7
②④④③ |①---|
口③②口 |--②-|
口口口口 |--③-|
①口口① |--④-|
8
口口口口 |--①-|
②口口① |②---|
③口口④ |③---|
口④③口 |④---|
9
②口⑤① |①---|
口口③口 |②---|
口④口口 |③-④-|
①⑤口② |--⑤-|
10
①口口② |--①-|
口口口口 |②---|
③口口④ |③---|
口④③口 |④---|
11
③④④② |①---|
口②③口 |--②-|
口口口口 |--③-|
①口口① |--④-|
12
口口口口 |--①-|
①口口② |②---|
④口口③ |③---|
口③④口 |④---|
13
①口口② |①---|
③口⑤口 |②---|
口④口⑥ |③-④-|
②口口① |⑤-⑥-|
14
⑥⑥口口 |①-②-|
口②口⑤ |--③-|
④口①口 |--④-|
口③③口 |⑤-⑥-|
15
口口③③ |--①-|
②⑤口口 |②-③-|
口⑥④① |--④-|
口口口口 |⑤-⑥-|
16
口③③口 |①-②-|
口口①口 |--③-|
②口口② |--④-|
④⑤⑤④ |⑤---|
17
口⑤⑥口 |①-②-|
④⑧⑦① |③-④-|
口③②口 |⑤-⑥-|
口口口口 |⑦-⑧-|
18
口口⑥口 |①-②-|
口⑤④口 |--③-|
③②①③ |--④-|
③口口③ |⑤-⑥-|
19
⑦口口⑥ |--①-|
口口口口 |②-③-|
口①②口 |④-⑤-|
⑤③口④ |⑥-⑦-|
20
口①③口 |①-②-|
①②口③ |--③-|
③口②① |----|
口③①口 |----|
21
②口口① |①---|
口⑤口③ |②---|
⑥口④口 |③-④-|
①口口② |⑤-⑥-|
22
口口⑥⑥ |①-②-|
⑤口②口 |--③-|
口①口④ |--④-|
口③③口 |⑤-⑥-|
23
③③口口 |--①-|
口口⑤② |②-③-|
①④⑥口 |--④-|
口口口口 |⑤-⑥-|
24
口③③口 |①-②-|
口①口口 |--③-|
②口口② |--④-|
④⑤⑤④ |⑤---|
25
口⑥⑤口 |①-②-|
①⑦⑧④ |③-④-|
口②③口 |⑤-⑥-|
口口口口 |⑦-⑧-|
26
口⑥口口 |①-②-|
口④⑤口 |--③-|
③①②③ |--④-|
③口口③ |⑤-⑥-|
27
⑥口口⑦ |--①-|
口口口口 |②-③-|
口②①口 |④-⑤-|
④口③⑤ |⑥-⑦-|
28
⑤①②口 |--①-|
口③④口 |--②-|
①③④② |③-④-|
口口口⑤ |⑤---|
29
口口口① |①---|
口口口口 |----|
口口口口 |----|
①口口口 |----|
30
口①口① |①---|
②口①口 |--②-|
口④口③ |--③-|
④口④口 |--④-|
31
口口口口 |----|
①口⑤② |①②③④|
③口口④ |⑤-⑥-|
口⑥口⑦ |⑦---|
32
①口①口 |①---|
口①口② |--②-|
③口④口 |--③-|
口④口④ |--④-|
33
口②口② |--①-|
口口①口 |②---|
口④口④ |③-④-|
口口③口 |----|
34
①口①口 |①---|
口①口② |--②-|
③口④口 |--③-|
口④口④ |--④-|
35
口口⑦口 |----|
②⑤口① |①②③④|
④⑧口③ |⑤-⑥-|
口口⑥口 |⑦-⑧-|
36
口①口① |①---|
②口①口 |--②-|
口④口③ |--③-|
④口④口 |--④-|
37
口口口口 |----|
口口口口 |----|
口口口口 |----|
口口口口 |----|
38
①口①口 |----|
口口④③ |①---|
③④口口 |②---|
口②口② |③-④-|
39
①⑤口口 |--①-|
口②口⑤ |②-③-|
口口③口 |④---|
④口④口 |⑤---|
40
口口口口 |----|
⑥⑤口⑥ |①-②-|
口③④口 |③-④-|
口①②口 |⑤-⑥-|
41
口口⑤① |--①-|
⑤口②口 |②-③-|
口③口口 |④---|
口④口④ |⑤---|
42
口口口⑥ |--①-|
口⑥口① |②-③-|
⑤②④③ |④-⑤-|
④口⑤口 |--⑥-|
43
⑤①④口 |①---|
④口⑤① |②-③-|
口③口② |--④-|
口②口③ |⑤---|
44
口⑤⑤口 |----|
口③④口 |①---|
③②②④ |②-③-|
①口口① |④-⑤-|
45
②口口② |--①-|
口口口口 |--②-|
口②②口 |----|
①口口① |----|
46
①口口② |----|
口③③口 |①-②-|
口口口口 |③---|
口⑤④口 |④-⑤-|
47
④⑥⑥③ |①-②-|
④口口③ |③-④-|
口②①口 |--⑤-|
⑤口口⑤ |--⑥-|
48
口口口③ |----|
②③口口 |①---|
口口②① |②---|
口①口口 |③---|
49
口口口口 |--①-|
⑤口口④ |②-③-|
④口口⑤ |--④-|
①②③口 |⑤---|
50
②口口① |----|
口③③口 |①-②-|
口口口口 |③---|
口④⑤口 |④-⑤-|
51
③口口④ |①-②-|
口口口口 |--③-|
④①②③ |--④-|
口⑤⑤口 |--⑤-|
52
口口口口 |①---|
②口口② |----|
②①①② |②---|
①口口① |----|
53
口②②口 |①---|
②①①② |----|
口①①口 |②---|
口口口口 |----|
54
②口口① |----|
口③③口 |①-②-|
口口口口 |③---|
口④⑤口 |④-⑤-|
55
②⑤⑤③ |①---|
②口口③ |②-③-|
①口口① |--④-|
④口口④ |--⑤-|
56
⑤口口口 |①-②-|
口口⑤④ |③---|
①④口② |④---|
口③③口 |⑤---|
57
口口口口 |----|
③口口④ |①-②-|
④口口③ |--③-|
②口口① |④---|
58
①④④② |----|
口③③口 |①-②-|
口口口口 |③---|
口口口口 |④---|
59
④口口口 |①-②-|
口⑤⑤③ |③-④-|
②口口口 |--⑤-|
口⑥⑥① |--⑥-|
60
口口口口 |①---|
②口口② |----|
②①①② |②---|
①口口① |----|
61
口②②口 |①---|
②①①② |----|
口①①口 |②---|
口口口口 |----|
62
①口口② |①---|
③口⑤口 |②---|
口④口⑥ |③-④-|
②口口① |⑤-⑥-|
63
①②①② |①-②-|
口口口口 |--③-|
口口口口
口③③口

⑥口⑥口
口口口⑤
口④口口 |--④-|
口口口口 |⑤-⑥-|
64
口③口③ |--①-|
②④⑤口 |②-③-|
④⑥①⑤ |--④-|
⑥口口口 |⑤-⑥-|
65
③④⑤③ |①-②-|
②口口② |--③-|
口口①口 |--④-|
口⑤④① |⑤---|
66
⑤⑤⑥⑥ |①-②-|
③⑧⑦① |③-④-|
口④②口 |⑤-⑥-|
⑧口口⑦ |⑦-⑧-|
67
口口⑥口 |①-②-|
③⑤④③ |--③-|
②口口① |--④-|
口③③口 |⑤-⑥-|
68
⑦口口⑥ |--①-|
口口口口 |②-③-|
口①②口 |④-⑤-|
⑤③口④ |⑥-⑦-|
69
口①③口 |①-②-|
①②口③ |--③-|
③口②① |----|
口③①口 |----|
70
②口口① |①---|
口⑤口③ |②---|
⑥口④口 |③-④-|
①口口② |⑤-⑥-|
71
②①②① |①-②-|
口口口口 |--③-|
口口口口
口③③口

口⑥口⑥
⑤口口口
口口④口 |--④-|
口口口口 |⑤-⑥-|
72
③口③口 |--①-|
口⑤④② |②-③-|
⑤①⑥④ |--④-|
口口口⑥ |⑤-⑥-|
73
③⑤④③ |①-②-|
②口口② |--③-|
口①口口 |--④-|
①④⑤口 |⑤---|
74
⑥⑥⑤⑤ |①-②-|
①⑦⑧③ |③-④-|
口②④口 |⑤-⑥-|
⑦口口⑧ |⑦-⑧-|
75
口⑥口口 |①-②-|
③④⑤③ |--③-|
①口口② |--④-|
口③③口 |⑤-⑥-|
76
⑥口口⑦ |--①-|
口口口口 |②-③-|
口②①口 |④-⑤-|
④口③⑤ |⑥-⑦-|
77
⑤①②口 |--①-|
口③④口 |--②-|
①④③② |③-④-|
口口口⑤ |⑤---|
78
口口口① |①---|
口口口口 |----|
口口口口 |----|
①口口口 |----|
79
口①口① |①---|
②口①口 |--②-|
口④口③ |--③-|
④口④口 |--④-|
80
口口口口 |----|
①口⑤② |①②③④|
③口口④ |⑤-⑥-|
口⑥口⑦ |⑦---|
81
①口①口 |①---|
口①口② |--②-|
③口④口 |--③-|
口④口④ |--④-|
82
口②口② |--①-|
口口①口 |②---|
口④口④ |③-④-|
口口③口 |----|
83
①口①口 |①---|
口①口② |--②-|
③口④口 |--③-|
口④口④ |--④-|
84
口口⑦口 |----|
②⑤口① |①②③④|
④⑧口③ |⑤-⑥-|
口口⑥口 |⑦-⑧-|
85
口①口① |①---|
②口①口 |--②-|
口④口③ |--③-|
④口④口 |--④-|
86
口口口口 |----|
口口口口 |----|
口口口口 |----|
口口口口 |----|

accuracy: 100%
最終更新:2023年08月04日 03:32