アットウィキロゴ
ハウリング

BPM:184
1
□□①① |①-②-|
②□□⑤ |③-④-|
□⑥③□ |⑤-⑥-|
④⑧□⑦ |⑦-⑧-|
2
⑥□□⑤ |①-②-|
⑥②①⑤ |③-④-|
④□□□ |⑤---|
□□③□ |⑥---|
3
□⑤④□ |①-②-|
□③⑥□ |③-④-|
□⑦②□ |⑤-⑥-|
①①⑧□ |⑦-⑧-|
4
□⑥⑥① |①-②-|
②□□□ |③-④-|
□□⑤③ |⑤---|
④□□□ |⑥---|
5
⑤□□□ |①---|
□②③□ |②-③-|
□□□□ |--④-|
□④①① |--⑤-|
6
□④⑤① |①---|
④□□⑤ |②-③-|
□②③□ |--④-|
□□□□ |--⑤-|
7
□⑤□⑤ |①---|
□③②□ |②-③-|
□□□□ |--④-|
□①□④ |--⑤-|
8
□□⑤⑤ |①---|
④□□③ |--②-|
④□①③ |③-④-|
□②□□ |--⑤-|
9
③□□□ |--①-|
□□□④ |②---|
⑤①②□ |③-④-|
□□□⑥ |⑤-⑥-|
10
□⑦□□ |①-②-|
⑦③②□ |③-④-|
□⑤□□ |⑤---|
□①④⑥ |⑥-⑦-|
11
④□□③ |--①-|
□②①□ |②---|
□□□□ |③-④-|
□⑥⑤□ |⑤-⑥-|
12
□⑥□□ |①-②-|
④□□① |③-④-|
□□⑤□ |⑤---|
②□□③ |⑥---|
13
⑤□□⑧ |①-②-|
⑦□④⑥ |③-④-|
□③□□ |⑤-⑥-|
①①②□ |⑦-⑧-|
14
□①④□ |①-②-|
□□□□ |③-④-|
□⑤□□ |⑤---|
③⑥⑥② |⑥---|
15
①□□① |①---|
②①①③ |②-③-|
②□□③ |--④-|
□④④□ |--⑤-|

⑤⑤⑤⑤
□□□□
□□□□
□□□□
16
□□□□ |----|
□□□□ |----|
□□□□ |----|
□□□① |①---|
17
①□①□ |①---|
□③□③ |②-③-|
⑤④⑤□ |④---|
□□②□ |⑤---|
18
□□③□ |①-②-|
①④④□ |③---|
□□□□ |④---|
⑤②⑤② |⑤---|
19
□①□① |①---|
③□③□ |②-③-|
□⑤④⑤ |④---|
□②□□ |⑤---|
20
□③□□ |①-②-|
□□□① |③---|
⑤□④□ |④---|
②④②⑤ |⑤---|
21
①□①□ |①---|
□③□③ |②-③-|
⑤④⑤□ |④---|
□□②□ |⑤---|
22
□□③□ |①-②-|
①④④□ |③---|
□⑤⑤□ |④---|
□②□② |⑤---|
23
①□□② |①-②-|
③□□④ |③-④-|
□□□□ |----|
□⑤⑥□ |⑤-⑥-|
24
□□□□ |①-②-|
③□□□ |----|
□①②④ |③-④-|
⑤□□□ |⑤---|
25
①□①□ |①---|
□③□③ |②-③-|
⑤④⑤□ |④---|
□□②□ |⑤---|
26
□□③□ |①-②-|
①④④□ |③---|
□□□□ |④---|
⑤②⑤② |⑤---|
27
□①□① |①---|
③□③□ |②-③-|
□⑤④⑤ |④---|
□②□□ |⑤---|
28
□③□□ |①-②-|
□□□① |③---|
⑤□④□ |④---|
②④②⑤ |⑤---|
29
①□①□ |①---|
□③□③ |②-③-|
⑤④⑤□ |④---|
□□②□ |⑤---|
30
□□③□ |①-②-|
①④④□ |③---|
□⑤⑤□ |④---|
□②□② |⑤---|
31
①□□② |①-②-|
①③□② |--③-|
□□⑤□ |--④-|
□④□□ |--⑤-|
32
□①②□ |①-②-|
⑤□□⑥ |③-④-|
③□□④ |⑤-⑥-|
□⑦□□ |⑦---|
33
③□④□ |①-②-|
□⑤□□ |③---|
□③⑥□ |④-⑤-|
⑦□②① |⑥-⑦-|
34
②②□③ |---①|
□□④□ |--②-|
□①□⑤ |--③-|
□□□□ |④-⑤-|
35
⑥□□⑤ |①-②-|
③⑥⑤□ |③-④-|
□□□□ |--⑤-|
④①②□ |--⑥-|
36
□□□□ |----|
□□□□ |①---|
□□□□ |--②-|
②③④① |③-④-|
37
□①□④ |①-②-|
□⑤⑥② |③-④-|
⑤③□⑥ |--⑤-|
□□□□ |--⑥-|
38
□□□□ |----|
□□□② |①---|
□□□□ |----|
①□②□ |②---|
39
□③④② |①---|
①⑤⑤□ |②---|
□③④□ |--③-|
□①□□ |④-⑤-|
40
□□⑤□ |--①-|
□□□⑤ |--②-|
□④□□ |--③④|
①②③□ |⑤---|
41
②□□□ |①---|
□②③□ |②---|
①④□① |③-④-|
①⑥⑤① |⑤-⑥-|
42
②②⑤□ |--①-|
□□④⑤ |--②-|
①③□□ |--③-|
□□□□ |④-⑤-|
43
□□□□ |--①-|
□①④□ |②-③-|
⑥⑤②③ |--④-|
□⑥③□ |⑤-⑥-|
44
③□□□ |----|
□□④□ |①---|
□⑤□□ |②-③-|
①□□② |④-⑤-|
45
⑥④⑥① |①-②-|
□②□③ |③-④-|
□□□□ |--⑤-|
□⑤□⑤ |--⑥-|
46
□□□□ |----|
□□③□ |①---|
②④⑤① |②-③-|
□□□□ |④-⑤-|
47
□⑤④□ |①-②-|
⑤①□④ |--③-|
③□□□ |--④-|
□③②□ |--⑤-|
48
②□□③ |--①-|
□②③□ |--②-|
□③②① |--③-|
③□①② |----|
49
②⑤□□ |①---|
⑥③□□ |②-③-|
④⑦□□ |④-⑤-|
□①①□ |⑥-⑦-|
50
□□□□ |①---|
□□①□ |----|
□□□□ |----|
□□□□ |②-③-|

□□□②
□□③□
□□□□
□□□□
51
□□②□ |①-②-|
□⑤□③ |③-④-|
□□④① |⑤---|
□⑦⑥□ |⑥-⑦-|
52
①□□□ |----|
□□□□ |----|
□②□□ |----|
□□□□ |①-②-|
53
□⑦□□ |①-②-|
①②□□ |③-④-|
⑤□⑥□ |⑤---|
③④□□ |⑥-⑦-|
54
□□①① |----|
□②②□ |①---|
③③□□ |②---|
□□□④ |③-④-|
55
□□□□ |----|
□□□① |①-②-|
□④③□ |--③-|
②④③□ |--④-|
56
□□③□ |----|
□②□□ |①---|
□□□① |②---|
□□□□ |③---|
57
①①□□ |①---|
□□⑦④ |②-③-|
□□③⑥ |④-⑤-|
□□⑤② |⑥-⑦-|
58
□□□□ |①---|
□□□□ |----|
□①□□ |----|
□□□□ |②-③-|

□□□□
□□□□
□③□□
②□□□
59
⑥⑥⑦⑦ |①-②-|
①④□□ |③-④-|
③□⑤□ |⑤---|
□②□□ |⑥-⑦-|
60
□□□□ |--①-|
③⑤③□ |--②-|
□②④② |--③-|
①□①□ |④-⑤-|
61
⑥②①① |①---|
□⑥□③ |②-③-|
②④□⑤ |④---|
□④③⑤ |⑤-⑥-|
62
□□①□ |----|
②□④① |①---|
③□□□ |②---|
□③②□ |③-④-|
63
⑥⑥①③ |----|
⑥□□① |①-②-|
□②⑤□ |③-④-|
④□□□ |⑤-⑥-|
64
□□②□ |--①-|
□③②② |--②-|
②②④① |--③-|
□②①① |④---|
65
①②⑧□ |①-②-|
□□□⑦ |③-④-|
⑤□□□ |⑤-⑥-|
□⑥④③ |⑦-⑧-|
66
□⑥□□ |①-②-|
⑤①④□ |③-④-|
□③②□ |⑤---|
□□⑥□ |⑥---|
67
□⑧②① |①-②-|
⑦□□□ |③-④-|
□□□⑤ |⑤-⑥-|
③④⑥□ |⑦-⑧-|
68
⑥□⑥□ |①-②-|
□④①⑤ |③-④-|
□②③□ |⑤---|
□□□□ |⑥---|
69
□□□③ |①---|
□□③③ |②-③-|
②②□① |--④-|
②□①□ |--⑤-|

□④□□
④□□□
□□□⑤
□□⑤□
70
③□②□ |----|
□①□□ |①-②-|
□□②□ |--③-|
④①④③ |--④-|
71
⑤①⑤① |①---|
②⑤②□ |②-③-|
□③④③ |--④-|
□④□④ |--⑤-|
72
□□□□ |--①-|
⑥□②① |②-③④|
⑥⑦⑦□ |⑤-⑥-|
③④⑤□ |--⑦-|
73
□①⑦□ |--①-|
□□□⑥ |②-③-|
④□□□ |④-⑤-|
□⑤③② |⑥-⑦-|
74
⑦□□□ |①-②-|
⑤①④□ |③-④-|
⑦③②□ |⑤---|
□□□⑥ |⑥-⑦-|
75
□⑦①□ |--①-|
⑥□□□ |②-③-|
□□□④ |④-⑤-|
②③⑤□ |⑥-⑦-|
76
□□□□ |①-②-|
□④①⑤ |③-④-|
□②③□ |⑤---|
□□□□ |----|
77
①②⑧□ |①-②-|
□□□⑦ |③-④-|
⑤□□□ |⑤-⑥-|
□⑥④③ |⑦-⑧-|
78
□□□□ |①-②-|
⑤①④□ |③-④-|
□③②□ |⑤---|
□□□□ |⑥-⑦⑧|

□□□□
□□□□
□□⑧□
□⑦□⑥
79
①①□③ |①---|
□④□□ |②-③-|
□□□⑤ |--④-|
□□②□ |--⑤-|
80
□②□□ |--①-|
□□③□ |--②-|
□④□□ |③-④-|
①□□⑤ |⑤---|
81
①□①□ |①---|
□③□③ |②-③-|
⑤④⑤□ |④---|
□□②□ |⑤---|
82
□□③□ |①-②-|
①④④□ |③---|
⑤□□□ |④---|
⑤②⑤② |⑤---|
83
□①□① |①---|
③□③① |②-③-|
□⑤④⑤ |④---|
□②□□ |⑤---|
84
□③□□ |①-②-|
□□□① |③---|
⑤□④□ |④---|
②④②⑤ |⑤---|
85
□⑧□① |①-②-|
⑦□②□ |③-④-|
□⑥□③ |⑤-⑥-|
⑤□④□ |⑦-⑧-|
86
□□④⑥ |①-②-|
□③□⑥ |③-④-|
⑤□②□ |⑤---|
⑤①□□ |⑥---|
87
①①□□ |①---|
□⑤④□ |②-③-|
□③②□ |--④-|
□⑤④□ |--⑤-|
88
□□①□ |----|
□□□① |----|
□②□□ |①-②-|
②□□□ |----|
89
□□□⑦ |①-②-|
⑧□⑥⑤ |③-④-|
□□④③ |⑤-⑥-|
□□②① |⑦-⑧-|
90
□□⑤□ |①-②-|
□④□□ |③-④-|
③①□□ |⑤---|
⑥□②□ |⑥---|
91
①②□□ |①-②-|
③④□□ |③-④-|
⑤⑥□⑧ |⑤-⑥-|
⑦□□□ |⑦-⑧-|
92
□②□□ |①-②-|
□□①③ |③-④-|
□□④□ |⑤---|
□⑤□□ |----|
93
①□□④ |①-②-|
□②⑤□ |③-④-|
③□⑦□ |⑤-⑥-|
□⑧□⑥ |⑦-⑧-|
94
⑥□①□ |①-②-|
②□□□ |③-④-|
□□□③ |⑤---|
④□□⑤ |⑥---|
95
④③②④ |①---|
□②③□ |②-③-|
□□□□ |--④-|
⑤①①⑤ |--⑤-|
96
□□①□ |--①-|
□□③□ |--②-|
②④□□ |③-④-|
⑤□□□ |⑤---|
97
□□□□ |----|
□□□□ |----|
□□□□ |----|
□□□□ |----|
最終更新:2022年08月29日 04:22