アットウィキロゴ
ヒトガタ

BPM:150
1
⑥①⑥□ |--①-|
□⑤④□ |②-③-|
□③□□ |④-⑤-|
□⑦②⑦ |⑥-⑦-|
2
□③□① |①-②-|
⑤⑥⑦□ |③-④-|
□⑤⑥⑦ |⑤-⑥-|
②□④□ |⑦---|
3
①□⑤□ |①---|
□⑤④② |②---|
①④③□ |③--④|
□③□② |--⑤-|
4
④②□③ |①-②-|
②⑥⑦⑤ |③---|
□④③□ |④-⑤-|
□□⑤① |⑥-⑦-|
5
⑤□⑥② |①---|
①⑥④□ |②---|
□④③② |③--④|
①③□□ |⑤-⑥-|
6
⑥④□③ |①-②-|
□⑧⑦⑤ |③④--|
②⑥□① |⑤-⑥-|
②□⑤① |⑦-⑧-|
7
⑨⑩⑭⑬ |①②③④|
⑫⑪⑮⑯ |⑤⑥⑦⑧|
②⑥⑧④ |⑨⑩⑪⑫|
①⑤⑦③ |⑬⑭⑮⑯|
8
⑨⑭⑪⑯ |①②③④|
⑬⑩⑮⑫ |⑤⑥⑦⑧|
④③⑦⑧ |⑨⑩⑪⑫|
①②⑥⑤ |⑬⑭⑮⑯|
9
⑤□⑧□ |①②③④|
□⑦□□ |⑤⑥⑦⑧|
□②⑥④ |⑨⑩⑪⑫|
①□③□ |⑬⑭⑮⑯|

□⑭□⑬
⑩□□⑨
□⑯□⑮
⑫□□⑪
10
⑧□⑦□ |①②③④|
□④③□ |⑤⑥⑦⑧|
⑥□⑤□ |⑨⑩⑪⑫|
□②①□ |⑬-⑭-|

□⑩□⑪
⑭□□□
□⑭□⑬
⑫□⑬⑨
11
②⑥⑤□ |①-②-|
□③⑤① |③-④-|
④□③□ |⑤-⑥-|
□①□⑦ |⑦---|
12
①⑤④□ |①---|
①□□① |②-③-|
□□②□ |④-⑤-|
②③□□ |⑥-⑦-|

□□□□
⑥□□□
□⑦□□
□□□⑥
13
①⑧⑤□ |①-②-|
⑥③□① |③-④-|
②⑦③□ |⑤-⑥-|
⑤④□⑦ |⑦-⑧-|
14
①□⑤□ |①-②-|
⑥□②① |③-④-|
③⑦③□ |⑤-⑥-|
□④⑧⑦ |⑦-⑧-|
15
①③⑤□ |①-②-|
⑦⑤□① |③-④-|
⑧⑥③□ |⑤-⑥-|
②④□⑦ |⑦-⑧-|
16
④①④□ |①---|
□⑤□① |②-③-|
⑥□②□ |④-⑤-|
③⑦□⑥ |⑥-⑦-|
17
□③⑤□ |①-②-|
⑤⑦①① |③-④-|
□④③□ |⑤-⑥-|
⑥⑧②⑦ |⑦-⑧-|
18
④②⑤□ |①-②-|
□□⑧① |③-④-|
①③③□ |⑤--⑥|
⑥□□⑦ |⑦-⑧-|
19
□⑤④⑥ |①-②-|
①□□② |③-④-|
□③⑤③ |⑤-⑥-|
□□①□ |⑦-⑧-|

□□□□
□□⑧⑧
□□□□
⑦□□□
20
□⑤②□ |①-②-|
①□⑧⑥ |③-④-|
□③□③ |⑤-⑥-|
⑦□④⑦ |⑦-⑧-|
21
□⑤③① |①-②-|
①□□⑤ |③-④-|
□③②④ |⑤-⑥-|
⑦□⑥⑧ |⑦-⑧-|
22
□⑤□① |①-②-|
①□④⑥ |③-④-|
□③②③ |⑤-⑥-|
□□□□ |⑦-⑧-|

□□□□
□⑦□□
□□⑧□
⑦□□□
23
□⑤③① |①-②-|
①□⑤⑦ |③-④-|
□③⑥⑧ |⑤-⑥-|
⑦□④② |⑦-⑧-|
24
□④①□ |①---|
①□□⑤ |②-③-|
□②④□ |④-⑤-|
□□□③ |⑥-⑦-|

□□⑥□
□□□□
□□□⑦
⑥□□□
25
□④④① |①-②-|
①□②⑦ |③---|
□③⑤□ |④-⑤-|
⑥□□③ |⑥-⑦-|
26
□⑤□① |①-②-|
①⑧②□ |③-④-|
□③□③ |⑤--⑥|
⑦□④⑥ |⑦-⑧-|
27
□□③① |①---|
□□②□ |②---|
□④□□ |③---|
□①③□ |④---|
28
③①□□ |①---|
□□②□ |②---|
□④□③ |③---|
□□□① |④---|
29
□□□③ |①---|
①②□① |②---|
③□④□ |③---|
□□□□ |④---|
30
⑤③①□ |①---|
□②□□ |②---|
□□④□ |③---|
①③□□ |④-⑤-|
31
□□□⑥ |①-②-|
④③□□ |③-④-|
□①⑦□ |⑤---|
②⑤□□ |⑥-⑦-|
32
□□□□ |①-②-|
□□②③ |③---|
□□□□ |④-⑤-|
□□□① |⑥-⑦-|

⑦⑤④⑥
□□□□
□□□□
⑥④⑤⑦
33
□□□□ |①---|
④②①③ |②---|
①③④② |③---|
□□□□ |④---|
34
②□①① |①---|
□③□□ |②---|
□□□□ |③-④-|
①①□④ |⑤⑥⑦⑧|

□□□□
□□□□
□⑤⑥□
□⑦⑧□
35
③⑦⑦□ |①-②-|
□□□⑤ |③-④-|
④⑦⑦② |⑤-⑥-|
①□□⑥ |⑦---|
36
□□□□ |①-②-|
①②③□ |③---|
□□□□ |④-⑤⑥|
③②①□ |⑦-⑧-|

□⑦⑤④
⑧⑧□⑥
□④⑤⑦
□□□□
37
③④④③ |①-②-|
□□③□ |③---|
④③□④ |④--⑤|
②②①① |⑥-⑦-|

□□□□
□⑥□□
□□⑤□
□□⑦⑦
38
①⑤⑤② |①-②-|
①□④② |③-④-|
□③□④ |⑤-⑥⑦|
③□□□ |⑧-⑨-|

□□□□
□⑥□□
⑥□⑦□
□⑧⑧⑨
39
①⑥②② |①---|
①□□② |②---|
④③⑤⑤ |③--④|
③□□⑤ |⑤-⑥-|
40
□□□□ |①-②-|
①②③□ |③---|
□□□□ |④-⑤⑥|
③②①□ |⑦-⑧-|

□⑦⑤④
⑧⑧□⑥
□④⑤⑦
□□□□
41
③④④③ |①-②-|
□□③□ |③---|
④③□④ |④--⑤|
②②①① |⑥-⑦-|

□□□□
□⑥□□
□□⑤□
□□⑦⑦
42
①⑤⑤② |①-②-|
①□④② |③-④-|
□③□④ |⑤-⑥⑦|
③□□□ |⑧-⑨-|

□□□□
□⑥□□
⑥□⑦□
□⑧⑧⑨
43
①□②② |①---|
①□□② |②---|
③③□□ |③--④|
□③□□ |⑤-⑥-|

⑤□□□
□⑥□□
□□⑥□
④□□⑤
44
□①④④ |①-②-|
①□①□ |③-④-|
□③□□ |⑤--⑥|
⑤⑤②□ |⑦-⑧-|

□□□□
⑧□□□
⑥□□⑦
□□□□
45
□②⑤⑤ |①-②-|
□①③① |③-④-|
□□①□ |⑤--⑥|
④④□□ |⑦-⑧-|

⑧⑧□□
□□□□
⑥□⑦□
□□□□
46
□□④⑤ |①-②③|
⑧□⑤④ |④---|
⑥③⑦① |⑤--⑥|
□②□□ |⑦-⑧-|
47
□□□③ |①-②-|
□□③□ |③---|
□□□□ |④--⑤|
②②①① |⑥-⑦-|

□□④□
□⑦□④
⑤□□□
□□□⑥
48
□①④④ |①-②-|
①□①□ |③-④-|
□③□□ |⑤--⑥|
⑤⑤②□ |⑦-⑧-|

□□□□
⑧□□□
⑥□□⑦
□□□□
49
□②⑤⑤ |①-②-|
□①③① |③-④-|
□□①□ |⑤--⑥|
④④□□ |⑦-⑧-|

⑧⑧□□
□□□□
⑥□⑦□
□□□□
50
□□③④ |①-②-|
⑦□④③ |③---|
⑤□⑥① |④--⑤|
□②□□ |⑥-⑦-|
51
□□□③ |①-②-|
□□③□ |③---|
□□□① |④--⑤|
②②□① |⑥-⑦-|

□⑥④□
⑥□□④
□□⑤⑦
□□⑦□
52
⑤⑥③① |①-②-|
⑦④⑦③ |③-④-|
②⑧□□ |⑤-⑥-|
□②□⑤ |⑦-⑧-|
53
□□⑤□ |①---|
□⑤④② |②---|
□④③□ |③--④|
①③①② |--⑤-|
54
④②□③ |①-②-|
②⑥⑦⑤ |③---|
□④③□ |④-⑤-|
□□⑤① |⑥-⑦-|
55
□④②③ |①-②-|
①□□□ |③-④-|
□□⑤③ |⑤-⑥⑦|
①⑤□□ |⑧-⑨-|

⑧□⑨□
□⑨⑦□
□⑦□□
□□⑥□
56
⑦④□③ |①-②-|
□⑨⑧⑥ |③④⑤-|
②⑦⑤① |⑥-⑦-|
②□⑥① |⑧-⑨-|
57
⑨⑩⑭⑬ |①②③④|
⑫⑪⑮⑯ |⑤⑥⑦⑧|
②⑥⑧④ |⑨⑩⑪⑫|
①⑤⑦③ |⑬⑭⑮⑯|
58
⑨⑭⑪⑯ |①②③④|
⑬⑩⑮⑫ |⑤⑥⑦⑧|
④③⑦⑧ |⑨⑩⑪⑫|
①②⑥⑤ |⑬⑭⑮⑯|
59
⑤□⑧□ |①②③④|
□⑦□□ |⑤⑥⑦⑧|
□②⑥④ |⑨⑩⑪⑫|
①□③□ |⑬⑭⑮⑯|

□⑭□⑬
⑩□□⑨
□⑯□⑮
⑫□□⑪
60
⑧□⑦□ |①②③④|
□④③□ |⑤⑥⑦⑧|
⑥□⑤□ |⑨⑩⑪⑫|
□②①□ |⑬-⑭-|

□⑩□⑪
⑭□□□
□⑭□⑬
⑫□⑬⑨
61
□□①□ |----|
□②□② |①-②-③-|
□□③□ |④---|
□④□④ |----|
62
□□□□ |----|
□□□□ |----|
□□□□ |----|
□□□□ |----|
最終更新:2022年08月29日 04:23