アットウィキロゴ
ミックスナッツ(TVアニメ『SPY×FAMILY』オープニング主題歌)
(Official髭男dism)

BASIC

Level: 1
BPM: 150
Notes: 169

1
口口口口 |----|
口口口口 |----|
口口口口 |----|
口口口口 |----|
2
口口口口 |①---|
口①①口 |----|
口①①口 |----|
口口口口 |----|
3
口口口口 |----|
口口口口 |----|
口口口口 |----|
口口口口 |----|
4
口口口口 |----|
口口口口 |----|
口口口口 |----|
口口口口 |----|
5
口口口口 |----|
口口口口 |----|
口口口口 |----|
口口口口 |----|
6
①口口② |①---|
口口口口 |----|
口口口口 |②---|
口口口口 |----|
7
口口口口 |①---|
①口口② |----|
口口口口 |②---|
口口口口 |----|
8
口口口口 |①---|
口口口口 |----|
①口口② |②---|
口口口口 |----|
9
口口口口 |①---|
口口口口 |----|
口口口口 |②---|
①口口② |----|
10
口口口口 |①---|
口①①口 |----|
口①①口 |----|
口口口口 |----|
11
口口口口 |----|
口口口口 |----|
口口口口 |----|
口口口口 |----|
12
口①①口 |①---|
口口口口 |②---|
②③④口 |③---|
口口口口 |④---|
13
口口口口 |①---|
口②口口 |----|
口口口① |②---|
口口口口 |----|
14
口口口口 |①---|
口口口口 |----|
口②口口 |----|
口口①口 |②---|
15
口口口口 |①---|
②口口口 |----|
口口①口 |②---|
口口口口 |----|
16
口口口口 |①---|
口口口口 |----|
口口②口 |②---|
口口口① |----|
17
②口口口 |①---|
口①口口 |----|
口口口口 |②---|
口口口口 |----|
18
口①①口 |①---|
口口口口 |----|
口②口口 |②---|
口口口口 |----|
19
口口口口 |①---|
口②①口 |②---|
口口口口 |③---|
口口③口 |----|
20
口口口口 |①---|
口口①口 |②---|
②③④口 |③---|
口口口口 |④---|
21
口口口口 |①---|
口②口口 |----|
口口口① |②---|
口口口口 |----|
22
口口口口 |①---|
口口口口 |----|
口②口口 |----|
口口①口 |②---|
23
口口口口 |①---|
②口口口 |----|
口口①口 |②---|
口口口口 |----|
24
口口口口 |①---|
口口口口 |----|
口口②口 |②---|
口口口① |----|
25
②口口口 |①---|
口①口口 |----|
口口口口 |②---|
口口口口 |----|
26
口口口口 |①---|
口口①口 |----|
口②口口 |②---|
口口口口 |----|
27
口口口口 |①---|
口口口口 |----|
口口口口 |②---|
②口①口 |----|
28
口①①口 |①---|
口②②口 |----|
口口口口 |②---|
口口口口 |----|
29
口口口口 |①---|
口口口口 |----|
口①①口 |②---|
口②②口 |----|
30
口口口口 |①---|
②口口② |----|
①口口① |②---|
口口口口 |----|
31
①口口① |①---|
口口口口 |----|
口口②口 |②---|
口口口口 |----|
32
①口口① |①---|
②口口② |----|
口口口口 |②---|
口口口口 |----|
33
口口口口 |①---|
口口口口 |----|
①口口① |②---|
②口口② |----|
34
口口口口 |①---|
口口②口 |----|
口①口口 |②---|
口口口口 |----|
35
口口口口 |①---|
口①口口 |----|
口口②口 |②---|
口口口口 |----|
36
口口口口 |①---|
②口口② |----|
口口口口 |②---|
口①口口 |----|
37
①口口① |①---|
口②口口 |----|
口口③口 |②---|
口口口口 |③---|
38
口口口口 |①---|
口口口③ |②---|
口口口② |③---|
口口口① |----|
39
口口口口 |①---|
③口口口 |②---|
②口口口 |③---|
①口口口 |----|
40
口①①口 |①---|
口口口口 |----|
口口口口 |----|
口口口口 |----|
41
口口口口 |①---|
口②②口 |----|
口①①口 |②---|
口口口口 |----|
42
口口口口 |①---|
口口口口 |----|
②②①① |②---|
口口口口 |----|
43
口口口口 |①---|
口口口口 |----|
口口口口 |②---|
②②①① |----|
44
口口口口 |①---|
口②②口 |----|
口①①口 |②---|
口口口口 |----|
45
②①①② |①---|
口口口口 |----|
口口口口 |②---|
口口口口 |----|
46
口口口口 |①---|
口口口③ |②---|
口口口② |③---|
口口口① |----|
47
口口口口 |①---|
③口口口 |②---|
②口口口 |③---|
①口口口 |----|
48
口①①口 |①---|
口口口口 |----|
口口口口 |----|
口口口口 |----|
49
口口口口 |①---|
口②②口 |----|
口①①口 |②---|
口口口口 |----|
50
②口口① |①---|
④口口③ |②---|
口口口口 |③---|
口口口口 |④---|
51
口口口口 |①---|
口口口口 |②---|
②口口① |③---|
④口口③ |④---|
52
口口口口 |①---|
口口口口 |②---|
口④③口 |③---|
口②①口 |④---|
53
口②③口 |①---|
口口①口 |----|
口口口口 |②---|
口口口口 |③---|
54
口口口口 |①---|
口①口口 |----|
口口口口 |----|
口口口口 |----|
55
口口口口 |①---|
口口口口 |----|
口②口口 |②---|
口口①口 |----|
56
口②口口 |①---|
口口①口 |----|
口口口口 |②---|
口口口口 |----|
57
口口①① |①---|
②②口口 |----|
口口口口 |②---|
口口口口 |----|
58
口口口口 |①---|
口口口口 |----|
口口①① |----|
口口口口 |----|
59
口口口口 |①---|
口口口口 |----|
口口②口 |②---|
口①口口 |----|
60
口口②口 |①---|
口①口口 |----|
口口口口 |②---|
口口口口 |----|
61
①①口口 |①---|
口口②② |----|
口口口口 |②---|
口口口口 |----|
62
口口口口 |①---|
口口口口 |----|
①①口口 |----|
口口口口 |----|
63
口口口口 |----|
口①①口 |----|
口①①口 |----|
口口口口 |①---|

accuracy: 100%
最終更新:2023年10月19日 17:02