アットウィキロゴ
ミックスナッツ(TVアニメ『SPY×FAMILY』オープニング主題歌)
(Official髭男dism)

ADVANCED

Level: 4
BPM: 150
Notes: 295

1
口口口口 |----|
口口口口 |----|
口口口口 |----|
口口口口 |----|
2
口口口④ |①---|
口口③口 |②---|
口②口口 |③---|
①口口口 |④---|
3
①口口口 |①---|
口②口口 |②---|
口口③口 |③---|
口口口④ |④---|
4
口④口口 |①---|
③口口口 |②---|
②口口口 |③---|
口①口口 |④---|
5
口口①口 |①---|
口口口② |②---|
口口口③ |③---|
口口④口 |④---|
6
口口口④ |①---|
口口③口 |②---|
口②口口 |③---|
①口口口 |④---|
7
①口口口 |①---|
口②口口 |②---|
口口③口 |③---|
口口口④ |④---|
8
口④口口 |①---|
③口口口 |②---|
②口口口 |③---|
口①口口 |④---|
9
口口①口 |①---|
口口口② |②---|
口口口③ |③---|
口口④口 |④---|
10
口口口口 |①---|
口①①口 |----|
口②②口 |②---|
口口口口 |----|
11
①口口① |①---|
②口口② |②---|
③口口③ |③---|
④口口④ |④---|
12
口口口口 |①---|
口①①口 |②---|
口口口口
口②口口

口口口口
口口④口
口③口口 |③---|
口口口口 |④---|
13
①③③口 |①---|
口④④口 |②---|
口口②口 |③---|
口口口口 |④---|
14
③③口口 |①---|
口口口口 |②---|
口①②口 |----|
口②①口 |③---|
15
口口口口 |①---|
口口口口 |--②-|
口口①① |③---|
④②③口 |--④-|
16
口口口口 |①---|
口③①口 |--②-|
口口口口 |③---|
口口④② |④---|
17
③口口口 |①---|
口口①口 |②---|
口②④口 |③---|
口口口口 |④---|
18
口口口口 |①---|
口口口口 |----|
口口口口 |②---|
口①口② |----|
19
口①口口 |①---|
口口口口 |②---|
口口②口 |③---|
口③口④ |④---|
20
口口口口 |①---|
口①①口 |②---|
口口口口
口②口口

口口口口
口口④口
口③口口 |③---|
口口口口 |④---|
21
①③③口 |①---|
口④④口 |②---|
口口②口 |③---|
口口口口 |④---|
22
③③口口 |①---|
口口口口 |②---|
口①②口 |----|
口②①口 |③---|
23
口口口口 |①---|
口口口口 |--②-|
口口①① |③---|
④②③口 |--④-|
24
口口口口 |①---|
口③①口 |--②-|
口口口口 |③---|
口口④② |④---|
25
口口①① |①---|
口口口口 |--②-|
口②③口 |③---|
④口口口 |--④-|
26
口口口口 |①---|
口②③口 |②-③-|
④⑤⑥口 |--④-|
口口口① |⑤-⑥-|
27
③③口口 |①---|
口口口口 |----|
口口口① |②---|
②②口口 |③---|
28
口口口口 |①---|
②①①口 |②--③|
口③③口 |----|
口口④口 |④---|
29
②口①① |①---|
口口口④ |②--③|
口③③口 |----|
口口口口 |④---|
30
口①①口 |①---|
④口口口 |②--③|
口③③口 |----|
口口口② |④---|
31
口①①口 |①---|
口口③口 |----|
口口口口 |②---|
②口口口 |③---|
32
①①口口 |①---|
口口口口 |②--③|
口③③口 |----|
④口口② |④---|
33
口④口口 |①---|
①口口口 |②--③|
口③③口 |----|
口口②口 |④---|
34
④口口口 |①---|
口口③口 |②---|
口②口口 |③---|
口口口① |④---|
35
口口②口 |①---|
口口口口 |②---|
口③①口 |③---|
口口口④ |--④-|
36
口③口② |①---|
口③口② |--②-|
口口口口 |----|
①口口口 |--③-|
37
口口①口 |①---|
口口①口 |----|
口口口口
口口口口

④④⑤⑤
口口口口
口口口口 |②-③-|
②②③③ |④-⑤-|
38
口口口口 |--①-|
②口③口 |②---|
口口①⑤ |③---|
口④口口 |④-⑤-|
39
口③口口 |--①-|
①口口口 |②---|
口口②口 |③---|
口④口口 |④---|
40
口口①口 |①---|
口①口口 |----|
口口口口
口口口口

口口口口
口③②口
口③②口 |----|
口口口口 |②-③-|
41
口口口口 |----|
口口口口 |----|
口口口口 |①---|
口口口① |----|
42
③③①① |①---|
口口口口 |②--③|
口②④口 |----|
口口口口 |④---|
43
口口口口 |①---|
③③①① |②--③|
口口口口 |----|
④②口口 |④---|
44
③③①① |①---|
口口④口 |②-③-|
口口口口 |----|
口口口② |④---|
45
④④⑤⑤ |①---|
口②口口 |②---|
口口口口 |③---|
①口口③ |④-⑤-|
46
口口口口 |--①-|
②口③口 |②---|
口口①⑤ |③---|
口④口口 |④-⑤-|
47
口③口口 |--①-|
①口口口 |②---|
口口②口 |③---|
口④口口 |④---|
48
口口①口 |①---|
口①口口 |----|
口口口口
口口口口

口口口口
口③②口
口③②口 |----|
口口口口 |②-③-|
49
口口口口 |----|
口口口口 |----|
口口口口 |①---|
口口口① |----|
50
①①口口 |①---|
口口②② |②---|
③③口口 |③---|
口口④④ |④---|
51
口③③口 |①---|
口口口口 |②---|
口口①① |----|
②②口口 |③---|
52
口口口口 |①---|
口口口① |②---|
②口④口 |③---|
口口③口 |④---|
53
口口口口 |①---|
口口①口 |----|
口③口口 |②---|
口②口口 |③---|
54
③口口② |①---|
口①口口 |②---|
口口口口 |③---|
口口口④ |④---|
55
口口④口 |①---|
口口③口 |②---|
口口②口 |③---|
①口口口 |④---|
56
口口口口 |①---|
口①口口 |----|
口口口口 |②---|
口②口口 |----|
57
口口口口 |①---|
④口③③ |②---|
②口①① |③---|
口口口口 |④---|
58
口口①① |①---|
口口口口 |----|
口②口口 |②---|
口口口口 |----|
59
口④口口 |①---|
口③口口 |②---|
口②口口 |③---|
口口口① |④---|
60
口口口口 |①---|
口口①口 |----|
口口口口 |②---|
口口②口 |----|
61
口口口口 |①---|
③③口④ |②---|
①①口② |③---|
口口口口 |④---|
62
①①口口 |①---|
口口口口 |----|
口口口口 |----|
口口口口 |----|
63
口口①① |①---|
口②②口 |----|
口②②口 |----|
口口口口 |②---|

accuracy: 100%
最終更新:2023年10月19日 17:10