アットウィキロゴ
ミックスナッツ(TVアニメ『SPY×FAMILY』オープニング主題歌)
(Official髭男dism)

EXTREME

Level: 9.0
BPM: 150
Notes: 734

1
口口口口 |----|
口口口口 |----|
口口口口 |----|
口口口口 |----|
2
①⑦⑧① |①-②-|
口⑤⑥口 |③-④-|
口③④口 |⑤-⑥-|
口口②口 |⑦-⑧-|
3
①口口⑧ |①-②-|
⑦口口② |③-④-|
③口口⑥ |⑤-⑥-|
⑤口口④ |⑦-⑧-|
4
口⑦⑧口 |①-②-|
口⑤⑥口 |③-④-|
口③④口 |⑤-⑥-|
口①②口 |⑦-⑧-|
5
①口口⑧ |①-②-|
⑦口口② |③-④-|
③口口⑥ |⑤-⑥-|
⑤口口④ |⑦-⑧-|
6
口⑦⑧口 |①-②-|
口⑤⑥口 |③-④-|
①③④口 |⑤-⑥-|
口①②口 |⑦-⑧-|
7
①口口⑧ |①-②-|
⑦口口② |③-④-|
③口口⑥ |⑤-⑥-|
⑤口口④ |⑦-⑧-|
8
口⑦⑧口 |①-②-|
口⑤⑥口 |③-④-|
口③④口 |⑤-⑥-|
口①②口 |⑦-⑧-|
9
①口口⑧ |①-②-|
⑦口口② |③-④-|
③口口⑥ |⑤-⑥-|
⑤口口④ |⑦-⑧-|
10
⑧口口口 |①②③④|
口②①口 |⑤⑥⑦⑧|
口口⑤口
④⑥⑦③

口⑫⑪口
⑭⑮⑬口
⑩口口⑨ |⑨⑩⑪⑫|
口口口口 |⑬⑭⑮-|
11
⑫⑪⑩⑨ |①②③④⑤⑥|
口口口口 |⑦⑧⑨⑩⑪⑫|
⑧⑦⑥⑤
④③②①

口口口口
⑭⑰⑬口
口口口口 |⑬-⑭------⑮--|
⑰口⑯⑮ |⑯⑰--|
12
口④口⑦ |①-②-|
⑧口③口 |③-④-|
①⑤⑥② |⑤-⑥-|
口①口口 |⑦-⑧-|
13
③口口口 |①-②-|
口口②口 |③-④-|
③④口口
口口①①

口⑥⑤口
口⑦⑧⑤
口口⑦口 |⑤-⑥-|
口口口口 |⑦-⑧-|
14
⑤⑦④口 |①-②-|
②⑥口⑥ |③-④-|
口口⑥口 |--⑤-|
①①③③ |⑥-⑦-|
15
口⑥③③ |①-②-|
口口①⑤ |--③-|
④①口① |④-⑤-|
口④②口 |--⑥-|
16
口口口口 |①-②-|
②口口口 |--③-|
③①①口
口③口口

口口口口
口口④口
口口⑦④ |④-⑤-|
⑥口⑤口 |⑥-⑦-|
17
①①口口 |①-②-|
①④口口 |③-④-|
口②口③
口口口口

口⑦⑤⑤
口口⑦⑤
⑧口口口 |⑤-⑥-|
⑧⑥口口 |⑦-⑧-|
18
④口⑥③ |①-②-|
④口口③ |--③-|
口②⑤① |④-⑤-|
口口口① |--⑥-|
19
口③口④ |①-②-|
口①②口 |③-④-|
口⑥⑤口 |--⑤⑥|
⑩⑨⑧⑦ |⑦⑧⑨⑩|
20
②口①⑤ |①-②-|
口⑥③① |③-④-|
④口⑦口 |⑤-⑥-|
口⑧口口 |⑦-⑧-|
21
③口⑤⑤ |①-②-|
⑧⑥口④ |③-④-|
③②口口 |⑤-⑥-|
⑦⑦①① |⑦-⑧-|
22
口口口口 |①-②-|
口口①口 |③-④-|
口③②①
口口③④

口⑥口口
⑥口口⑤
口口口⑦ |--⑤-|
口口口口 |⑥-⑦-|
23
口口⑥③ |①-②-|
口④②③ |--③-|
①④口⑥ |④-⑤-|
口①口⑤ |--⑥-|
24
口口口③ |①-②-|
①④⑦⑦ |--③-|
⑥⑥②口 |④-⑤-|
口①⑤⑤ |⑥-⑦-|
25
①①⑥② |①-②-|
口口口⑥ |--③-|
④口⑤③ |④-⑤-|
④口口③ |--⑥-|
26
口①口⑦ |①-②-|
①⑦②口 |③-④-|
④⑥⑤③ |--⑤-|
⑤④③⑥ |⑥-⑦-|
27
①口口口 |①-②③|
④口①② |-④⑤-|
⑤口口③
口口口口

⑨⑨⑧⑧
口口口口
口口口口 |⑥-⑦-|
⑦⑦⑥⑥ |⑧-⑨-|
28
口口口口 |①---|
③④口② |②-③④|
口①①②
口口口口

口口⑦口
口口口口
⑥口⑦口 |--⑤-|
口⑥口⑤ |⑥-⑦-|
29
口①口② |①---|
口口口② |②-③④|
口①口口
③④口口

口⑦⑥口
⑤口口口
⑦口口⑥ |--⑤-|
口口口口 |⑥-⑦-|
30
口口④③ |①---|
口①①口 |②-③④|
口口口口
口②②口

口⑤口口
⑤⑦口⑥
口⑦口口 |--⑤-|
口口口⑥ |⑥-⑦-|
31
口⑧⑦⑥ |①②③④|
口口①口 |⑤⑥⑦⑧|
⑤口①口
②③④口

⑩口口口
⑩口口⑪
口⑫⑪⑨ |⑨-⑩-|
⑫口口⑨ |⑪-⑫-|
32
③④口口 |①---|
口①①口 |②-③④|
口口口②
口口口②

口口口⑤
口口⑦口
口口⑦口 |--⑤-|
⑥口⑦口 |⑥-⑦-|
33
③④口口 |①---|
口①口口 |②-③④|
口①口②
口①口②

口口口口
⑥口口⑤
口⑦⑦口 |--⑤-|
口⑥⑤口 |⑥-⑦-|
34
口③②① |--①-|
口⑤口⑦ |②-③-|
口口口口 |④-⑤-|
④口⑥口 |⑥-⑦-|
35
口口口③ |①-②-|
口口②口 |③-④-|
口①④口
口口口口

口⑤口口
口口⑦口
口口口⑦ |⑤-⑥-|
口口口⑥ |--⑦-|
36
口③③口 |①-②-|
④①⑤口 |--③-|
①③③⑤ |--④-|
口口②⑤ |--⑤-|
37
口口口口 |①---|
口①口口 |②---|
①②②口
①口口口

④④③③
④口口③
⑥口口⑤ |③-④-|
⑥⑥⑤⑤ |⑤-⑥-|
38
⑦④②口 |--①-|
④③①② |②-③-|
⑦口③口 |④-⑤-|
口⑥口⑤ |⑥-⑦-|
39
口④⑤① |--①-|
④口②⑤ |②-③-|
口⑥⑦① |④-⑤-|
⑥口③⑦ |⑥-⑦-|
40
②口口口 |①-②-|
口①①口 |--③-|
③口口口
口口口口

口⑥⑥⑥
口⑤口⑥
口口⑥口 |--④-|
口口⑥④ |⑤-⑥-|
41
口④⑤口 |--①-|
②⑧③口 |--②-|
口②⑨③ |③-④⑤|
①⑥⑦口 |⑥⑦⑧⑨|
42
①口口口 |①-②-|
口口④② |③④-⑤|
①③口口
⑤⑤口②

⑪口⑥⑩
口⑦口口
⑨口口⑧ |--⑥⑦|
口口口口 |⑧⑨⑩⑪|
43
口③④口 |①-②-|
口口②口 |③④-⑤|
口③④口
⑤⑤①①

口口口口
口⑦口⑥
⑦口口⑧ |--⑥-|
口口⑧口 |⑦-⑧-|
44
①④④① |①-②-|
④⑧⑤④ |③-④-|
⑧⑥②⑦ |⑤-⑥-|
③③⑦口 |⑦-⑧-|
45
②口③③ |①-②-|
④口口口 |③-④-|
口④①口
口口口①

口⑥口口
口口口口
⑧口口⑤ |⑤-⑥-|
⑧⑧⑤⑦ |⑦-⑧-|
46
⑦④②口 |--①-|
④③①② |②-③-|
⑦口③口 |④-⑤-|
口⑥口⑤ |⑥-⑦-|
47
口④⑤① |--①-|
④口②⑤ |②-③-|
口⑥⑦① |④-⑤-|
⑥口③⑦ |⑥-⑦-|
48
②口口口 |①-②-|
口①①口 |--③-|
③口口口
口口口口

口⑥⑥⑥
口⑤口⑥
口口⑥口 |--④-|
口口⑥④ |⑤-⑥-|
49
口④⑤口 |--①-|
②⑧③口 |--②-|
口②⑨③ |③-④⑤|
①⑥⑦口 |⑥⑦⑧⑨|
50
①⑧⑤⑤ |①-②-|
③⑧④② |③-④-|
①③⑦④ |⑤-⑥-|
⑥⑥⑦② |⑦-⑧-|
51
①⑤口⑤ |①-②-|
③⑥④② |③-④-|
②④⑥③ |--⑤-|
⑦口⑦① |⑥-⑦-|
52
口口④口 |①-②-|
口口③口 |③-④-|
口②口口
口口口①

⑤口口口
口口口⑥
⑦口口口 |⑤-⑥-|
口口口⑧ |⑦-⑧-|
53
⑧②口⑫ |①-②③|
⑨⑥⑦⑬ |④⑤⑥⑦|
⑩①③⑭ |⑧⑨⑩⑪|
⑪④⑤⑮ |⑫⑬⑭⑮|
54
②①①③ |①---|
口②③口 |②---|
④①①口 |③---|
口④口口 |④---|
55
口②③口 |①-②-|
口④④口 |③-④-|
口②③①
口口①口

口口口⑤
口口口口
⑥口口口 |--⑤-|
⑥⑧⑦口 |⑥-⑦⑧|
56
口④①口 |①-②③|
④⑥⑤① |④-⑤⑥|
口②③口
口口口口

⑩口口⑪
口口口口
口⑫⑬⑦ |⑦-⑧⑨|
口⑧⑨⑦ |⑩⑪⑫⑬|
57
口③②⑤ |①-②-|
①③②⑤ |③-④-|
⑥⑧⑧⑦ |⑤-⑥-|
①⑥⑦④ |⑦-⑧-|
58
①④⑤② |①---|
口①②口 |②---|
③口口④ |③---|
口③④口 |④-⑤-|
59
①口口口 |①-②-|
④①口口 |③-④-|
口③②口
③④口②

口⑥⑥⑤
口⑧⑤⑦
口口⑧⑦ |⑤-⑥-|
口口口口 |⑦-⑧-|
60
口口口② |①---|
口口②口 |②-③-|
口①口口
①口③③

口⑥⑤口
⑩口口⑨
④⑧⑦口 |④-⑤⑥|
口④口口 |⑦⑧⑨⑩|
61
②口口③ |①-②-|
口②③口 |③-④-|
口口口①
④口口口

口⑧⑤口
⑥口口⑦
⑧⑥⑤⑦ |⑤-⑥-|
口口口口 |⑦-⑧-|
62
⑧口口口 |①②③④|
口②①口 |⑤⑥⑦⑧|
口口⑤口
④⑥⑦③

口⑫⑪口
⑭⑮⑬口
⑩口口⑨ |⑨⑩⑪⑫|
口口口口 |⑬⑭⑮-|
63
⑫⑪⑩⑨ |①②③④⑤⑥|
口口口口 |⑦⑧⑨⑩⑪⑫|
⑧⑦⑥⑤
④③②①

口口口口
⑯⑮⑭⑬
口口口口 |⑬⑭⑮⑯--|
口⑰⑰口 |⑰---|

accuracy: 100%
最終更新:2023年10月19日 17:26