アットウィキロゴ
Explore Every Ave.

BPM:135
1
②②□□ |①--②|
□③④□ |----|
①①□□ |-③④-|
□□⑤□ |-⑤--|
2
□②①③ |①--②|
①□□② |--③-|
□⑤□□ |--④-|
③④④□ |-⑤--|
3
□□②② |①--②|
□③④□ |----|
□□①① |-③④-|
□⑤□□ |--⑤-|
4
③②①□ |①--②|
①□□② |--③-|
□□□□ |--④-|
□④④③ |⑤⑥⑦⑧|

□□□□
⑤⑥⑦⑧
□□□□
□□□□
5
②②③① |①--②|
□⑤⑥□ |③---|
①①④⑦ |④⑤⑥-|
④□⑧□ |⑦⑧--|
6
③②①④ |①--②|
①⑤⑦② |③-④-|
□⑧□□ |⑤-⑥-|
④⑥⑥⑤ |⑦⑧--|
7
□③②② |①--②|
□⑤⑥□ |③---|
□④①① |④⑤⑥-|
□□□④ |-⑦⑧-|

□□□□
□□□□
□□□⑦
□□⑧□
8
①①①□ |①---|
□③②□ |②③④⑤|
□④⑤□ |⑥-⑦-⑧-|
□□□□ |⑨---|

□⑨⑨⑥
⑥□□⑦
⑦□□⑧
⑧⑨⑨□
9
①□④④ |①--②|
□②□⑥ |③-④⑤|
□□③⑥ |-⑥--|
⑤□□① |⑦⑧⑨-|

□⑨□□
□⑧□□
□⑦□□
□□□□
10
④□□① |①--②|
②⑥□□ |③-④⑤|
⑤□①③ |--⑥-|
□⑥□□ |⑦⑧⑨-|

□□⑦□
□□⑧□
□□⑨□
□□□□
11
□②⑤⑤ |①②③④|
①□□⑦ |--⑤⑥|
□□⑦③ |-⑦--|
⑥□④① |⑧⑨⑩-|

□⑩□□
□⑨□□
□⑧□□
□□□□
12
②□①⑥ |①②-③|
⑤□□③ |④-⑤⑥|
□□□① |-⑦⑧-|
④⑤③□ |⑨-⑩-|

□⑦⑨□
□□⑩□
⑦⑨□⑧
□□□□
13
①□④④ |①--②|
□②□⑥ |③-④⑤|
□□③⑥ |-⑥--|
⑤□□① |⑦⑧⑨-|

□⑨□□
□⑧□□
□⑦□□
□□□□
14
④□□① |①--②|
②⑥□□ |③-④⑤|
⑤□①③ |--⑥-|
□⑥□□ |⑦⑧⑨-|

□□⑦□
□□⑧□
□□⑨□
□□□□
15
□②⑤⑤ |①②③④|
①□□⑦ |--⑤⑥|
□□⑦③ |-⑦--|
⑥□④① |⑧⑨⑩-|

□⑩□□
□⑨□□
□⑧□□
□□□□
16
④□①□ |①②-③|
②⑥⑤③ |④-⑤-|
④⑤⑥① |-⑥--|
②□③□ |⑦-⑧-|

□□□□
□□□□
□□□□
⑧□□⑦
17
□⑤□② |①②--|
①④①□ |③④⑤-|
□③□② |-⑥⑦⑧|
□□□□ |⑨⑩⑪⑫|

□□□□
□□⑨⑥
□⑫⑦⑩
□⑧⑪□
18
①②④□ |--①②|
③⑤□□ |③④⑤⑥|
⑥⑦⑧⑨ |-⑦⑧⑨|
⑬⑫⑪⑩ |⑩⑪⑫⑬|
19
②□⑤□ |①②--|
□①④① |③④⑤-|
②□③□ |-⑥⑦⑧|
□□□□ |⑨⑩⑪⑫|

□□□□
⑥⑨□□
⑩⑦⑫□
□⑪⑧□
20
□②③□ |--①②|
④□□① |③④⑤-|
⑥⑦⑧⑤ |⑥⑦⑧⑨|
⑫⑪⑩⑨ |⑩⑪⑫-|
21
□⑤□② |①②--|
①④①□ |③④⑤-|
□③□② |-⑥⑦⑧|
□□□□ |⑨⑩⑪⑫|

□□□□
□□⑨⑥
□⑫⑦⑩
□⑧⑪□
22
⑥④①□ |--①②|
⑤②⑧□ |③④⑤⑥|
③⑨⑦⑩ |-⑦⑧-|
□□⑩□ |⑨-⑩-|
23
②□⑤□ |①②--|
□①④① |③④⑤-|
②□③□ |-⑥⑦⑧|
□□□□ |⑨⑩⑪⑫|

□□□□
⑥⑨□□
⑩⑦⑫□
□⑪⑧□
24
□①⑥② |--①②|
③⑦④⑩ |③④⑤-|
⑪⑤⑧□ |⑥⑦⑧⑨|
□⑨□⑫ |⑩⑪⑫-|
25
①□⑥⑦ |①-②③|
□④③□ |-④-⑤|
□②⑤□ |---⑥⑦---|
□□□□ |----|
26
②③□□ |--①-|
□|□□ |②③----|
□∧□□ |--④⑤|
□①①□ |⑥⑦⑧-|

□4□□
□□□④
□□□⑤
□⑧⑦⑥
27
⑧□⑥① |--①-|
②⑨⑩⑤ |②③④⑤|
①③④⑪ |⑥-⑦-|
□⑦□□ |⑧⑨⑩⑪|
28
⑨⑬⑩□ |----①②③-|
⑦□⑧⑥ |-④⑤⑥|
①⑤②⑫ |⑦⑧⑨⑩|
③⑪□④ |⑪⑫⑬-|
29
②□□② |①---|
|②②| |②---|
∧①①∧ |----|
①□□① |③-④-⑤-|

3③④3
□□□□
□⑤□□
□□□□
30
□□⑤□ |①-②③|
②④□□ |--④-|
④⑥③① |⑤⑥--|
□□①□ |⑦-⑧⑨|

⑧□□⑦
□□⑦□
□□□⑨
□□□□
31
□②□□ |--①-|
□③□□ |②③④⑤|
①④①□ |⑥⑦⑧⑨|
□⑤□□ |⑩⑪⑫⑬|

⑥□⑦□
⑧□⑨□
⑩□⑪□
⑫□⑬□
32
③①④⑧ |①②③④|
□□□□ |⑤⑥⑦⑧|
⑦⑤□② |⑨⑩⑪⑫|
□□□⑥ |⑬⑭⑮⑯|

□□□□
⑨⑩⑪⑫
□□□□
⑬⑭⑮⑯
33
□①―< |①---|
□□□□ |----|
①―<□ |----|
□□□□ |②---|

□2□②
□□□②
2□□□
□□□□
34
□□□□ |①---|
□□①□ |②---|
□②①□ |③④⑤⑥|
□②□□ |--⑦⑧|

□④③□
⑧⑥⑤⑦
□□□□
□□□□
35
□□□□ |①②--|
□□□□ |③④⑤⑥|
②④③① |--⑦⑧|
□⑥⑤□ |⑨⑩⑪⑫|

⑧□□⑦
⑩□□⑨
⑫□□⑪
□□□□
36
□④③□ |①②③④|
⑧②⑤⑦ |⑤⑥⑦⑧|
□□□□ |⑨⑩⑪⑫|
⑥□①□ |⑬⑭⑮⑯|

⑯□⑮□
□⑭□□
⑯⑩⑬⑨
□⑫□⑪
37
□□□① |--①-|
⑤□④① |②③④⑤|
□③□⑥ |--⑥-|
⑤□②⑥ |⑦⑧⑨⑩|

⑩⑨⑧⑦
□□□□
□□□□
□□□□
38
□□□□ |①②③④|
⑥②①□ |⑤-⑥⑦|
⑦④③□ |⑧---|
⑧□⑤□ |-⑨⑩⑪|

□□⑪□
□⑩□□
□□⑨□
□□□□
39
④⑧⑫⑯ |①②③④|
⑭⑩⑥② |⑤⑥⑦⑧|
③⑦⑪⑮ |⑨⑩⑪⑫|
⑬⑨⑤① |⑬⑭⑮⑯|
40
①⑥□□ |①②③④|
□□③⑧ |⑤⑥⑦⑧|
⑤②□□ |⑨-⑩-⑪-|
□□⑦④ |⑫---|

□□⑫⑫
⑪⑪⑫□
□□⑩⑩
⑨⑨□□
41
①⑥⑨⑤ |①②-③|
⑥□⑧③ |--④⑤|
④②⑦□ |-⑥--|
④□③① |⑦⑧⑨-|
42
①□□⑤ |①②-③|
④①⑦③ |④-⑤⑥|
□□□⑥ |--⑦-|
□□⑦② |⑧⑨⑩-|

□⑧□□
□⑨□□
□⑩□□
□□□□
43
⑤⑤②□ |①②③④|
⑦□□① |--⑤⑥|
③⑦□□ |-⑦--|
①④□⑥ |⑧⑨⑩-|

□□⑩□
□□⑨□
□□⑧□
□□□□
44
□①□② |①②-③|
③□□□ |④-⑤⑥|
①□□□ |-⑦⑧-|
□③□④ |⑨-⑩-|

⑥⑨⑦□
□⑩□⑤
⑧□⑨⑦
□□⑤□
45
④④□① |①--②|
⑥□②□ |③-④⑤|
⑥③□□ |-⑥--|
①□□⑤ |⑦⑧⑨-|

□□⑨□
□□⑧□
□□⑦□
□□□□
46
①□□⑤ |①②-③|
④①⑦③ |④-⑤⑥|
□□□⑥ |--⑦-|
□□⑦② |⑧⑨⑩-|

□⑧□□
□⑨□□
□⑩□□
□□□□
47
⑤⑤②□ |①②③④|
⑦□□① |--⑤⑥|
③⑦□□ |-⑦--|
①④□⑥ |⑧⑨⑩-|

□□⑩□
□□⑨□
□□⑧□
□□□□
48
□①□□ |①②-③|
□①⑥② |--④-|
□⑦□③ |-⑤--|
□⑤④□ |⑥-⑦-|
49
□②□□ |①②--|
□①⑤③ |③④⑤-|
②□④□ |⑥⑦⑧⑨|
□□□□ |⑩⑪⑫⑬|

⑬⑫⑪⑩
⑦⑧□□
□⑨□□
⑥□□⑥
50
□□□⑦ |-①②③|
④□⑥□ |④⑤⑥⑦|
□⑤③① |⑧⑨⑩⑪|
□□②□ |⑫⑬⑭⑮|

⑨⑩□□
□⑪□⑧
⑧□□□
⑮⑭⑬⑫
51
□□②□ |①②--|
③⑤①□ |③④⑤-|
□④□② |⑥⑦⑧⑨|
□□□□ |⑩⑪⑫⑬|

⑥□□⑥
□□⑧⑨
□□⑦□
⑩⑪⑫⑬
52
□④□□ |--①②|
①⑤③□ |③④⑤-|
□②□□ |⑥⑦⑧⑨|
□□□□ |⑩⑪⑫-|

⑥□□⑥
⑩□□⑧
□⑪⑦⑨
□□⑫□
53
□②□□ |①②--|
□①⑤③ |③④⑤-|
②□④□ |⑥⑦⑧⑨|
□□□□ |⑩⑪⑫⑬|

⑬⑫⑪⑩
⑦⑧□□
□⑨□□
⑥□□⑥
54
⑩⑪⑫□ |--①②|
⑦□⑨① |③④⑤⑥|
□⑧②④ |⑦⑧⑨-|
⑦③⑤⑥ |⑩⑪⑫-|
55
□□⑦⑧ |①②--|
③⑤⑥② |③④⑤-|
①④①□ |-⑥⑦⑧|
⑨⑩⑪⑫ |⑨⑩⑪⑫|
56
□①⑥□ |--①②|
③⑦②⑩ |③④⑤-|
⑪⑤⑧④ |⑥⑦⑧⑨|
□⑨□⑫ |⑩⑪⑫-|
57
□□□□ |----|
□□□□ |----|
□□□□ |----|
□□□□ |----|
最終更新:2022年08月29日 04:13