アットウィキロゴ
Flying Soda

BPM:106
1
>――① |①---|
□□□□ |②---|
□□□□ |③---|
①□□□ |④-⑤-|

□□□5
②⑤□□
□③□□
□□④□
2
①――< |①---|
□□□□ |②---|
□□□□ |③---|
□□□□ |④-⑤-|

5□□□
□⑤□②
□□③□
□④□□
3
□□□□ |①---|
□□□□ |②---|
□□□□ |③---|
>――① |④-⑤-|

□□④□
□③□□
②□⑤□
□□□5
4
□□□□ |①---|
□□□□ |②---|
□□□□ |③---|
①――< |④---|

□③③□
□④④②
□□□□
3□□□
5
□□□□ |①--②|
□□□② |③---|
□①①□ |④--⑤|
□□③□ |⑥-⑦-|

□□□⑤
□⑦□□
□□⑥□
④□□□
6
□□⑤□ |①--②|
④□②□ |③---|
①⑦□⑥ |④--⑤|
□□□③ |⑥-⑦-|
7
①□□⑤ |①--②|
□□□② |③---|
□□⑥□ |④--⑤|
④□③□ |⑥---|
8
□④④□ |①--②|
⑥□②□ |③--④|
①④④⑤ |----|
⑥□□③ |⑤-⑥-|
9
②□④□ |①--②|
□□④① |③-④-|
□③□□ |⑤--⑥|
□□□① |⑦-⑧⑨|

□⑤□□
□⑤□⑥
□⑨□□
⑧□⑦□
10
②□③③ |①-②③|
□④①④ |-④-⑤|
□⑤□⑤ |---⑥|
□□□□ |⑦-⑧-|

□□⑧□
⑥□⑧□
□□□□
□⑦□□
11
□①□② |①--②|
④①□□ |③-④-|
□□③□ |⑤--⑥|
④□□□ |⑦-⑧⑨|

⑥□□□
□□□⑤
□⑦⑨□
□⑧□⑤
12
□①⑤⑤ |①②③④|
□□□□ |--⑤-|
□□□② |⑥-⑦-⑧-|
③□④□ |⑨-⑩-|

⑦□⑩□
□⑧□□
⑨□⑩□
□□□⑥
13
□①□□ |①--②|
□□□② |③-④-|
④①□□ |⑤--⑥|
④□③□ |⑦-⑧-|

□□□□
⑥□□⑧
□□⑧⑤
□⑦□⑤
14
①③③□ |①-②③|
④①④□ |-④-⑤|
⑤□⑤□ |---⑥|
□□②② |⑦-⑧-|

⑧⑧□□
□□□⑥
□□□□
□□⑦□
15
□□①① |①--②|
②□□□ |③-④-|
□□□④ |⑤--⑥|
□③□④ |⑦-⑧⑨|

□□□⑥
□⑨□□
⑤□⑦□
⑤□⑧□
16
⑤⑤①□ |①②③④|
□□□□ |-⑤⑥-|
②④⑥⑥ |---⑦|
□□□③ |⑧-⑨-|

□□□□
□□⑦□
□□□⑨
⑧⑧□⑨
17
①――< |①--②|
□□□② |③---|
□□□□ |④--⑤|
□□③□ |⑥⑦⑧⑨|

6□□⑤
□⑦□□
□⑨⑥④
□□⑧□
18
□□①② |①--②|
□□□□ |③---|
□□③□ |④-⑤⑥|
□□□□ |-⑦-⑧|

□④④□
⑦□□⑤
□⑦□□
□□⑥□

□□□□
□⑧□□
⑧――<
□□□□
19
□□□□ |---①|
□□□① |②---|
□□□□ |③--④|
□□②□ |⑤⑥⑦⑧|

⑥□□④
□□⑦□
5⑧⑤□
□□□③
20
□②―< |①---|
>―③□ |②---|
□□□□ |③--④|
>―①□ |-⑤⑥-|

④3□□
□□4□
⑥□□□
□⑥2⑤
21
□□□□ |①---|
□□□□ |②③④⑤|
□①―< |⑥---|
①□□□ |⑦-⑧-|

③□□②
□④□□
□2⑤□
⑥□□□

⑧⑦□□
⑦⑧□□
□□□□
□□□□
22
□□□□ |①---|
□□□□ |②③④⑤|
>―①□ |⑥---|
□□□① |⑦-⑧-|

□□□③
□□④□
□⑤2□
②□□⑥

□□□□
□□⑧⑦
□□⑦⑧
□□□□
23
①―<□ |①---|
□□□□ |②③④⑤|
□①□□ |⑥---|
□□□□ |⑦-⑧-|

2□③□
□④□□
⑤□□⑥
□□□②

□□□□
□□⑧⑦
□□⑦□
□□□⑧
24
□①―< |①---|
□□□□ |②③④⑤|
①□□□ |⑥---|
□□□□ |⑦---|

⑥2□⑦
⑥□⑤⑦
□④□②
③□□□
25
□□∨∨ |①--②|
②□|| |③---|
□□|| |④--⑤|
□③①① |⑥-⑦-|

□□□□
⑦⑤□□
□④□□
⑥□□□
26
②①□□ |①--②|
□□□□ |③---|
□③□□ |④-⑤-⑥-|
□□□□ |⑦-⑧-⑨-|

⑧④⑤⑦
④⑧⑦⑤
□□⑨□
⑥⑥44
27
□①□□ |①---|
□|□□ |②-③-|
□|□□ |④---|
□∧□□ |⑤-⑥-|

□□□□
①――<
□□□□
□□□□

□2□□
2□□□
□□□②
③□②□

□□④□
□□|□
□□|□
□□∧□

□□□□
>――④
□□□□
□□□□

□□5□
□□⑥5
⑤⑥□□
□⑤□□
28
①①□② |①-②③|
③□□□ |④---|
□□□② |⑤--⑥|
③□④□ |⑦-⑧-|

□⑦□□
⑦□□⑥
□⑤□□
□□□⑧
29
□□□□ |①---|
□□□□ |②③④⑤|
①――< |----|
□□□□ |⑥-⑦-|

□∨□□
□|□□
□|□□
□①□□

□□□③
□□□□
2□□□
④2□□

□□□□
□□□□
>――⑤
□□□□

□□∨□
□□|□
□□|□
□□⑤□

□□□□
⑥□□□
□□□6
□□6⑦
30
①□□④ |①②③-|
□①□② |④--⑤|
③⑤②□ |⑥--⑦|
□③□□ |⑧-⑨-|

□□□□
□□⑥⑧
⑦□□□
⑨□⑧⑥
31
□①□□ |①---|
□|□□ |②-③-|
□|□□ |④---|
□∧□□ |⑤-⑥-|

□□□□
①――<
□□□□
□□□□

□2□□
2□□□
□□□②
③□②□

□□④□
□□|□
□□|□
□□∧□

□□□□
>――④
□□□□
□□□□

□□5□
□□⑥5
⑤⑥□□
□⑤□□
32
①①□② |①-②③|
③□□□ |④-⑤-|
□⑤□② |⑥-⑦-|
③□④□ |⑧-⑨-|

⑥□⑥□
□⑦□⑦
⑧□⑧□
□⑨□⑨
33
②①①④ |①--②|
□□④□ |③-④-|
□③□□ |⑤-⑥⑦|
□□□□ |⑧-⑨-|

□□⑤□
□⑧□⑤
□□□□
⑥⑨⑨⑦
34
①③⑥□ |①-②③|
⑤□□② |④-⑤⑥|
③①④⑥ |⑦-⑧-|
□□□□ |⑨-⑩-|

⑨□□□
□□⑧⑩
⑨□□□
□⑦□⑩
35
□①□□ |①---|
□|□□ |②-③-|
□|□□ |④---|
□∧□□ |⑤-⑥-|

□□□□
①――<
□□□□
□□□□

□2□□
2□□□
□□□②
③□②□

□□④□
□□|□
□□|□
□□∧□

□□□□
>――④
□□□□
□□□□

□□5□
□□⑥5
⑤⑥□□
□⑤□□
36
①①□② |①-②③|
③□□□ |④---|
□□□② |⑤--⑥|
③□④□ |⑦-⑧-|

□⑦□□
⑦□□⑥
□⑤□□
□□□⑧
37
□□□□ |①---|
□□□□ |②③④⑤|
①――< |----|
□□□□ |⑥-⑦-|

□∨□□
□|□□
□|□□
□①□□

□□□③
□□□□
2□□□
④2□□

□□□□
□□□□
>――⑤
□□□□

□□∨□
□□|□
□□|□
□□⑤□

□□□□
⑥□□□
□□□6
□□6⑦
38
①□□④ |①②③-|
□①□② |④--⑤|
③⑤②□ |⑥--⑦|
□③□□ |⑧-⑨-|

□□□□
□□⑥⑧
⑦□□□
⑨□⑧⑥
39
□①□□ |①---|
□|□□ |②-③-|
□|□□ |④---|
□∧□□ |⑤-⑥-|

□□□□
①――<
□□□□
□□□□

□2□□
2□□□
□□□②
③□②□

□□④□
□□|□
□□|□
□□∧□

□□□□
>――④
□□□□
□□□□

□□5□
□□⑥5
⑤⑥□□
□⑤□□
40
①①□② |①-②③|
③□□□ |④-⑤-|
□⑤□② |⑥-⑦-|
③□④□ |⑧-⑨-|

⑥□⑥□
□⑦□⑦
⑧□⑧□
□⑨□⑨
41
□①①④ |①--②|
②□□□ |③-④⑤|
□□⑤□ |⑥--⑦|
□□③□ |⑧-⑨⑩|

⑨□□□
□⑥□⑦
□⑩□□
□⑧□□
42
□④⑤□ |①-②-|
⑥□①□ |③-④-|
②□□⑦ |⑤-⑥-|
□⑧③□ |⑦-⑧-|
43
>――① |①---|
□□□□ |②---|
□□□□ |③---|
①□□□ |④-⑤-|

□□□5
②⑤□□
□③□□
□□④□
44
①――< |①---|
□□□□ |②---|
□□□□ |③---|
□□□□ |④-⑤-|

5□□□
□⑤□②
□□③□
□④□□
45
□□□□ |①---|
□□□□ |②---|
□□□□ |③---|
>――① |④-⑤-|

□□④□
□③□□
②□⑤□
□□□5
46
□□□□ |①---|
□□□□ |②---|
□□□□ |③---|
①――< |④---|

□③③□
□④④②
□□□□
3□□□
47
□□□□ |①--②|
□□□② |③---|
□①①□ |④--⑤|
□□③□ |⑥-⑦-|

□□□⑤
□⑦□□
□□⑥□
④□□□
48
□□⑤□ |①--②|
④□②□ |③---|
①⑦□⑥ |④--⑤|
□□□③ |⑥-⑦-|
49
①□□□ |①--②|
□□□② |③---|
□⑥⑦□ |④-⑤-|
④□③⑤ |⑥-⑦-|
50
⑦⑧⑨□ |①-②-③-|
③⑥⑥□ |④---⑤----⑥--|
②⑥⑥⑤ |------⑦⑧|
①□□④ |⑨---|
51
□□□□ |----|
□□□□ |----|
□□□□ |----|
□□□□ |----|
最終更新:2022年08月29日 04:30