アットウィキロゴ
Victory of the Century

BPM:180
1
□①□□ |①---|
□□□□ |②-③-|
①□□< |--④-|
□∧□□ |⑤---|

□2□□
□□□□
2□②□
□□□□

□□∨□
>□□③
□□□□
□□③□

□□□□
□④□4
□□□□
□□4□

□∨□□
⑤□□<
□□□□
□⑤□□
2
□□④③ |①-②-|
7□②⑦ |③-④-|
□□⑥⑤ |⑤-⑥-|
□7⑧① |⑦-⑧-|
3
□①□□ |①---|
□□□□ |②-③-|
①□□< |--④-|
□∧□□ |⑤---|

□2□□
□□②□
2□□□
□□□□

□□③□
□□□□
>□□③
□□∧□

□□4□
□□□□
□④□4
□□□□

□□□□
⑤□□<
□□□□
⑤□□<
4
□□□① |①-②-|
□□□③ |③-④-|
□□②□ |⑤-⑥-|
□□□④ |⑦-⑧-|

□□□⑧
7□⑤□
□□□⑥
7□⑦□
5
①①□□ |①---|
□□□□ |②-③-|
□□□□ |--④-|
∧∧□□ |⑤---|

22□□
□□□□
□□②□
□□□□

□□□□
>□□③
□□□□
>□□③

□□□□
□□□4
□④□□
□□□4

∨∨□□
□□□□
□□□□
⑤⑤□□
6
□□⑤① |①-②-|
□□③⑦ |③-④-|
□□⑥② |⑤-⑥-|
77④⑧ |⑦-⑧-|
7
□①□□ |①---|
①□□< |②-③-|
□□□□ |--④-|
□∧□□ |⑤---|

□2□□
2□②□
□□□□
□□□□

□□∨□
□□□□
>□□③
□□③□

□□□□
□□□□
□④□4
□□4□

□∨□□
□□□□
⑤□□<
□⑤□□
8
⑧⑦⑥⑤ |----|
④③②① |----|
1□□□ |①②③④|
□1□□ |⑤⑥⑦⑧|
9
□□□□ |①-②-|
□⑥⑤□ |③-④-|
□⑧⑦① |⑤-⑥-|
②④③① |⑦-⑧-|
10
②⑥⑤① |①-②-|
□⑧⑦□ |③-④-|
④□□③ |⑤-⑥-|
□□□□ |⑦-⑧-|
11
②⑩⑦⑪ |①②③④|
⑥⑭⑮③ |⑤⑥⑦⑧|
⑯⑧⑤⑬ |⑨⑩⑪⑫|
⑫④⑨① |⑬⑭⑮⑯|
12
□□□□ |①②----------|
□□□□ |--③④|
□□□□ |⑤⑥⑦⑧|
>□□① |⑨-⑩⑪|

□③④□
⑤⑨□⑧
□⑥⑦□
⑩⑪□2
13
③⑦□① |①②-③|
□⑩⑤□ |④-⑤⑥|
④⑧⑨② |-⑦⑧-|
□□⑥□ |⑨-⑩-|
14
③⑦□① |①②-③|
□⑩⑤□ |④-⑤⑥|
④⑧⑨② |-⑦⑧-|
□□⑥□ |⑨-⑩-|
15
①□④① |①--②|
□⑧□③ |③-④-|
⑥⑦□⑤ |⑤⑥--|
□②□⑦ |⑦-⑧-|
16
①④□① |①--②|
□⑧□③ |③-④-|
⑦□□⑤ |⑤⑥--|
□⑥②⑦ |⑦-⑧-|
17
⑥□①① |①--②|
□□□③ |③-④-|
⑧④□⑤ |⑤⑥--|
②⑦□⑦ |⑦-⑧-|
18
□①□① |①--②|
④⑧□③ |③-④-|
□⑦②⑤ |⑤⑥--|
⑥□□⑦ |⑦-⑧-|
19
①□④① |①--②|
□⑧□③ |③-④-|
⑥⑦□⑤ |⑤⑥--|
□②□⑦ |⑦-⑧-|
20
①④□① |①--②|
□⑧□③ |③-④-|
⑦□□⑤ |⑤⑥--|
□⑥②⑦ |⑦-⑧-|
21
⑥□①① |①--②|
□□□③ |③-④-|
⑧④□⑤ |⑤⑥--|
②⑦□⑦ |⑦-⑧-|
22
⑩②①⑨ |①②③④|
④⑫③⑪ |⑤⑥⑦⑧|
⑭⑥⑤⑬ |⑨⑩⑪⑫|
⑧⑯⑦⑮ |⑬⑭⑮⑯|
23
⑧①①⑥ |①-②-|
③□⑤⑦ |③④⑤⑥|
□④②□ |⑦-⑧-|
□□□□ |⑨⑩⑪⑫|

□□⑪□
□⑩□□
⑨□□⑫
□□□□
24
□③□③ |①-②-|
□□□□ |③---|
□□①□ |④⑤⑥⑦|
②□□□ |⑧⑨⑩⑪|

④□□□
□⑧⑤⑪
⑩⑥⑨□
□□□⑦
25
⑧④⑤⑥ |①-②-|
③⑩⑦□ |③④⑤⑥|
□□⑪② |⑦-⑧-|
⑨①①⑫ |⑨⑩⑪⑫|
26
③□□② |①---|
□⑦④⑥ |②---|
□□□② |③④⑤⑥|
⑤□①□ |⑦---|
27
⑧①①⑥ |①-②-|
③□⑤⑦ |③④⑤⑥|
□④②□ |⑦-⑧-|
□□□□ |⑨⑩⑪⑫|

□□⑪□
□⑩□□
⑨□□⑫
□□□□
28
□③□③ |①-②-|
□□□□ |③---|
□□①□ |④⑤⑥⑦|
②□□□ |⑧⑨⑩⑪|

④□□□
□⑧⑤⑪
⑩⑥⑨□
□□□⑦
29
□②③□ |①-②③|
④⑨⑩⑭ |④⑤⑥⑦|
⑪⑫⑬⑦ |⑧-⑨⑩|
①⑤⑥⑧ |⑪⑫⑬⑭|
30
①①②② |①---|
□③③□ |②---|
□⑤□⑥ |③---|
□③③④ |④-⑤⑥|
31
□①□□ |①---|
□□□□ |②-③-|
①□□< |--④-|
□∧□□ |⑤---|

□2□□
□□□□
2□②□
□□□□

□□∨□
>□□③
□□□□
□□③□

□□□□
□④□4
□□□□
□□4□

□∨□□
⑤□□<
□□□□
□⑤□□
32
□③②① |①②③-|
□⑨⑧⑦ |④⑤⑥-|
□⑥⑤④ |⑦⑧⑨-|
□□□□ |⑩-⑪-|

□□□⑪
⑩□□□
□□□□
□⑩□⑩
33
□①□□ |①---|
□□□□ |②-③-|
①□□< |--④-|
□∧□□ |⑤---|

□2□□
□□□□
2□②□
□□□□

□□③□
□□□□
>□□③
□□∧□

□□4□
⑤□□<
□④□4
⑤□□<
34
□□⑨⑧ |①②③-|
⑩③②① |④⑤-⑥|
⑪⑩⑤⑦ |⑦-⑧⑨|
⑩□④⑥ |⑩-⑪-|
35
①①□□ |①---|
□□□□ |②-③-|
□□□□ |--④-|
∧∧□□ |⑤---|

22□□
>□□③
□□②□
>□□③

□□□□
□□□4
□④□□
□□□4

∨∨□□
□□□□
□□□□
⑤⑤□□
36
□□②① |①②③-|
□⑦③□ |④⑤⑥-|
⑨⑧⑤④ |⑦⑧⑨-|
□□⑥□ |⑩-⑪-|

□□⑪□
□□□□
□□□□
⑩⑩□⑩
37
□①□□ |①---|
①□□< |②-③-|
□□□□ |--④-|
□∧□□ |⑤---|

□2□□
2□②□
□□□□
□□□□

□□∨□
□□□□
>□□③
□□③□

□□□□
□□□□
□④□4
□□4□

□∨□□
□□□□
⑤□□<
□⑤□□
38
□□①② |①②③-|
□④⑤③ |④⑤⑥-|
□□⑥⑦ |⑦⑧⑨-|
□□⑨⑧ |⑩-⑪-|

□□⑪□
□□□□
⑩⑩□□
□⑩□□
39
①□□④ |①---|
□□□③ |②-③-|
□□②□ |④---|
⑤□□□ |⑤---|
40
□②□□ |①-②-|
□□③⑤ |③-④-|
④□□□ |⑤-⑥⑦|
□□①□ |⑧⑨⑩⑪|

⑨□□□
□⑧□□
□⑪⑦□
□□⑩⑥
41
□□③⑤ |①---|
①□□□ |②-③-|
□□④② |④---|
□□□□ |⑤---|
42
①□□□ |①-②-|
□⑤□② |③-④-|
③□□□ |⑤-⑥⑦|
□□□④ |⑧⑨⑩⑪|

□□□⑨
□□⑧□
□⑦⑪□
⑥⑩□□
43
□④□□ |①---|
④⑤□① |②-③-|
⑤□□□ |④---|
□□③② |⑤---|
44
□□□□ |①---|
□③□□ |----|
□①□② |②---|
①□□□ |③---|
45
□④①□ |①---|
④□□① |②-③-|
②□□③ |④---|
⑥□□⑤ |⑤-⑥-|
46
□□①□ |①---|
□>□① |②---|
□□∧□ |③---|
□□□□ |④---|

□□□□
□∨□□
②□<□
□②□□

□□□□
□□∨□
□>□③
□□③□

□④2□
④□<2
3∧□4
□34□
47
□1□□ |①---|
1①①□ |----|
□①①□ |②---|
□□□② |----|
48
□□□□ |①---|
□□□□ |----|
□□□□ |②---|
□②①□ |----|
49
□⑨⑧④ |①-②-|
③⑦⑩□ |③-④-|
□⑪⑥② |⑤⑥⑦⑧|
①⑤⑫□ |⑨⑩⑪⑫|
50
□□□□ |①---|
②⑦□⑤ |--②-|
⑥□④□ |③④⑤-|
①③□□ |⑥-⑦-|
51
④①①① |①-②-|
□⑦①⑥ |③-④-|
⑧⑤④② |⑤-⑥-|
③⑥□⑧ |⑦-⑧-|
52
□□①⑧ |①-②-|
□□⑦□ |③-④-|
□④③⑥ |⑤-⑥-|
②□⑤□ |⑦-⑧-|
53
①①①□ |①-②-|
②①⑦④ |③-④-|
⑥⑤③□ |⑤-⑥-|
⑧④⑥⑧ |⑦-⑧-|
54
①③④□ |①-②-|
□□□□ |③-④-|
□□②□ |⑤-⑥-|
□□□□ |⑦-⑧-|

⑧□□□
□⑦□□
⑥□□□
□⑤□□
55
□③④⑧ |①-②-|
④⑦⑤③ |③-④-|
□①①① |⑤-⑥-|
②□①⑥ |⑦-⑧-|
56
③④⑤⑧ |①-②-|
⑥□□□ |③-④-|
①①①④ |⑤-⑥-|
⑦①②⑥ |⑦-⑧-|
57
⑦□□□ |①-②-|
⑤①①① |③-④-|
③⑥①□ |⑤-⑥-|
□②④⑧ |⑦-⑧-|
58
□④①□ |①②③④|
⑧②③⑤ |⑤⑥⑦⑧|
⑥⑫⑨⑦ |⑨⑩⑪⑫|
□⑩⑪□ |⑬-⑭-|

□□□□
□⑭□□
□□□□
□□□⑬
59
④①①① |①-②-|
③⑦①⑥ |③-④-|
⑧□④□ |⑤-⑥-|
②⑥⑤⑧ |⑦-⑧-|
60
□□①⑧ |①-②-|
□□⑦□ |③-④-|
□④③⑥ |⑤-⑥-|
②□⑤□ |⑦-⑧-|
61
①①①□ |①-②-|
②①□④ |③-④-|
□④③□ |⑤-⑥-|
□④□□ |⑦-⑧-|

□□□⑦
□⑧⑥□
⑥□□⑤
⑧□⑥⑧
62
□④①⑧ |①-②-|
③□⑦□ |③-④-|
□□②⑥ |⑤-⑥-|
□□⑤□ |⑦-⑧-|
63
②□□⑧ |①-②-|
④□⑦③ |③-④-|
①①①⑥ |⑤-⑥-|
□①⑤□ |⑦-⑧-|
64
①①①□ |①-②-|
④①□③ |③-④-|
□□□□ |⑤-⑥-|
□③④② |⑦-⑧-|

□□□⑦
□□□□
⑥⑧⑤⑦
⑥□□□
65
□③②□ |①-②③|
⑦⑨⑧⑥ |④⑤⑥⑦|
□□□□ |⑧⑨⑩⑪|
□⑤④① |⑫⑬⑭⑮|

⑬□□⑫
□□□□
⑪□□⑩
⑮□□⑭
66
⑭④③⑬ |①②③④|
⑧⑩⑨⑦ |⑤⑥⑦⑧|
⑫②①⑪ |⑨⑩⑪⑫|
⑯⑥⑤⑮ |⑬⑭⑮⑯|
67
□②□□ |①-②-|
□□□③ |③-④-|
□□①□ |⑤⑥⑦⑧|
□□④□ |⑨⑩⑪⑫|

⑨□□⑩
□⑤⑥□
⑦⑪⑫⑧
□□□□
68
□□③□ |①-②-|
②□□□ |③-④-|
□□□□ |⑤⑥⑦⑧|
①□□④ |⑨⑩⑪⑫|

⑨□□⑩
□⑤⑥□
⑪□□⑫
□⑦⑧□
69
□①③□ |①--②|
④⑦⑧② |③-④-|
□⑤⑥□ |⑤⑥⑦⑧|
⑨⑩⑪⑫ |⑨⑩⑪⑫|
70
①□③□ |①--②|
④□□② |③-④-|
⑤⑦⑧⑥ |⑤⑥⑦⑧|
⑨⑩⑪⑫ |⑨⑩⑪⑫|
71
①②③⑬ |①②③④|
④⑤⑥⑭ |⑤⑥⑦⑧|
⑦⑧⑨⑮ |⑨⑩⑪⑫|
⑩⑪⑫⑯ |⑬⑭⑮⑯|
72
□①②□ |①②③④|
⑦③④□ |⑤⑥⑦-|
□⑤⑥□ |⑧-⑨-|
□□□□ |⑩-⑪⑫|

□□⑫⑪
□□□⑨
□□□□
⑩□⑧□
73
④①⑦□ |①-②-|
④⑤④⑦ |③-④-|
⑧③⑥□ |⑤-⑥-|
□⑧□② |⑦-⑧-|
74
⑨②⑧① |①-②-|
④⑤⑥□ |③-④⑤|
□□□① |⑥-⑦-|
⑦⑪③⑩ |⑧⑨⑩⑪|
75
□⑤□□ |①-②③|
④□□③ |④-⑤-|
□□①□ |⑥⑦⑧⑨|
□□②□ |⑩⑪⑫⑬|

⑩□□⑪
□⑥⑦□
⑧□□⑨
⑫□□⑬
76
□□④□ |①-②③|
②□□③ |④-⑤-|
□①⑤□ |⑥⑦⑧⑨|
□□□□ |⑩⑪⑫⑬|

⑩□□⑪
□⑥⑦□
□□□□
⑫⑧⑨⑬
77
□①④□ |①-②③|
②□□③ |④-⑤-|
⑤□□□ |⑥⑦⑧⑨|
□□□□ |⑩⑪⑫⑬|

□□□□
□⑧⑨□
□⑥⑦□
⑩⑪⑫⑬
78
①②④□ |①-②③|
⑤□□③ |④-⑤-|
⑥⑧⑨⑦ |⑥⑦⑧⑨|
⑩⑪⑫⑬ |⑩⑪⑫⑬|
79
①②③⑬ |①②③④|
④⑤⑥⑭ |⑤⑥⑦⑧|
⑦⑧⑨⑮ |⑨⑩⑪⑫|
⑩⑪⑫⑯ |⑬⑭⑮⑯|
80
⑧①②□ |①②③④|
□③④□ |⑤⑥⑦-|
□⑤⑥□ |⑧-⑨-|
⑦□⑨□ |--⑩-|

□□⑩□
□□□⑩
□□□□
□□□□
81
□□□④ |①-②-|
□□②□ |③-④-|
①③□□ |⑤-⑥⑦|
□①□□ |⑧-⑨-|

□⑨⑧□
⑨⑤□⑦
□□⑥□
⑤□⑦□
82
④⑫⑬⑤ |①②③④|
⑯⑧①⑨ |⑤⑥⑦⑧|
⑥⑭⑮⑦ |⑨⑩⑪⑫|
⑩②⑪③ |⑬⑭⑮⑯|
83
④⑧⑨⑤ |①---|
⑫□①⑬ |②③④⑤|
②⑩⑪③ |⑥⑦⑧⑨|
□⑥⑦① |⑩⑪⑫⑬|
84
②⑥⑦③ |①---|
□①□□ |②③④⑤|
□⑧⑨□ |⑥⑦⑧⑨|
①④⑤□ |⑩⑪⑫⑬|

□□□□
⑩□□⑪
□□□□
⑫□□⑬
85
□□③□ |①---|
④①②□ |--②-|
①□□③ |----|
□④②□ |③-④-|
86
②□□① |--①-|
□③③③ |②---|
□□③□ |③---|
②□③① |----|
最終更新:2022年08月29日 04:23