アットウィキロゴ
ZIGZAG COWBOY
BEMANI Sound Team "劇団レコード"

BASIC

Level: 3
BPM: 128-140
Notes: 311

1
口口口口 |(140)----|
口口口口 |----|
口口口口 |----|
口口口口 |----|
2
口口口口 |①---|
①口③口 |②---|
口②口④ |③---|
口口口口 |④---|
3
①①口口 |①---|
②②⑤⑤ |②---|
③③口口 |③---|
④④口口 |④-⑤-|
4
口口口口 |----|
口口口口 |①-②-|
①口口口 |----|
口口②② |----|
5
③③口口 |①---|
口口口② |②-③-|
①①④口 |----|
口口口口 |④---|
6
口口①① |①---|
②②口口 |②---|
口口③③ |③---|
④④口口 |④---|
7
口口①① |①---|
口口②② |②---|
④④口口 |③---|
③③口口 |④---|
8
口口口口 |①---|
③③①① |②-③-|
口口②② |----|
口口④口 |④---|
9
口①①口 |①---|
口②②口 |②---|
口③③口 |③---|
口④④口 |④---|
10
④口口④ |①---|
③口口③ |②---|
②口口② |③---|
①口口① |④---|
11
口口口口 |①---|
口②④口 |②---|
口①③口 |③---|
口口口口 |④---|
12
口口口口 |①---|
②口口④ |②---|
①口口③ |③---|
口口口口 |④---|
13
口口口① |①---|
口口②口 |②---|
口口口③ |③---|
口口④口 |④---|
14
口口①口 |①---|
口口口② |②---|
口口③口 |③---|
口口口④ |④---|
15
口④口口 |①---|
③口口口 |②---|
口②口口 |③---|
①口口口 |④---|
16
④口口口 |①---|
口③口口 |②---|
②口口口 |③---|
口①口口 |④---|
17
口口②① |①---|
③④口口 |②---|
口口口口 |③---|
口口口口 |④---|
18
口口口口 |①---|
口口口口 |②---|
口口②① |③---|
③④口口 |④---|
19
口口口口 |①---|
③①③① |②---|
④②④② |③---|
口口口口 |④---|
20
①①口口 |①---|
口②②口 |②---|
口口③③ |③---|
口④④口 |④---|
21
④④④④ |①---|
③③③③ |②---|
②口口② |③---|
①口口① |④---|
22
口口口口 |①---|
口③口口 |②---|
口②口口 |③---|
口①口口 |----|
23
口口口口 |①---|
口口③口 |②---|
口口②口 |③---|
口口①口 |----|
24
①口口② |①---|
③口口④ |②---|
口口口口 |③---|
口口口口 |④---|
25
口口口口 |①---|
口口口口 |②---|
①口口② |③---|
③口口④ |④---|
26
口口口口 |①---|
口③口口 |②---|
口②口口 |③---|
口①口口 |----|
27
口口口口 |①---|
口口③口 |②---|
口口②口 |③---|
口口①口 |----|
28
口口口口 |①---|
口①口口 |----|
口口口口 |----|
口口口口 |----|
29
②②①① |①---|
口口口口 |--②-|
口口口口 |----|
口口口口 |----|
30
④口口口 |①---|
口③口口 |②---|
口口②口 |③---|
口口口① |④---|
31
口口口① |①---|
口口②口 |②---|
口③口口 |③---|
④口口口 |④---|
32
口口①口 |①---|
口②口口 |②---|
口口③口 |③---|
口④口口 |④---|
33
口④口口 |①---|
口口③口 |②---|
口②口口 |③---|
口口①口 |④---|
34
口口口口 |①---|
口②②口 |----|
口口口口 |②---|
口①①口 |----|
35
②②②② |①---|
口口口口 |--②-|
①口口① |----|
口口口口 |----|
36
口口口口 |①---|
口口口口 |----|
口口口口 |----|
①①①① |----|
37
口①①口 |①---|
口①①口 |----|
口口口口 |----|
口口口口 |----|
38
①口口① |①---|
①口口① |----|
口②②口 |②---|
口②②口 |----|
39
④口口④ |①---|
③口口③ |②---|
②口口② |③---|
①口口① |④---|
40
口口口口 |①---|
口①③口 |②---|
口口口口 |③---|
口②④口 |④---|
41
①口口③ |①---|
口口口口 |②---|
②口口④ |③---|
口口口口 |④---|
42
口①口口 |①---|
口口②口 |②---|
口③口口 |③---|
口口④口 |④---|
43
口口口④ |①---|
③口口口 |②---|
口口口② |③---|
①口口口 |④---|
44
口口口口 |①----②|
④②②④ |----|
③①①③ |③----④|
口口口口 |----|
45
④②②④ |①----②|
口口口口 |----|
口口口口 |③----④|
③①①③ |----|
46
口口口口 |①---|
口①①口 |----|
口①①口 |----|
口口口口 |----|
47
口口④④ |①---|
③③口口 |②---|
口口②② |③---|
①①口口 |④---|
48
①①口口 |①---|
②②⑤⑤ |②---|
③③口口 |③---|
④④口口 |④-⑤-|
49
口口口口 |----|
口口口口 |①-②-|
①口口口 |----|
口口②② |----|
50
③③口口 |①---|
口口口② |②-③-|
①①④口 |----|
口口口口 |④---|
51
口口①① |①---|
②②口口 |②---|
口口③③ |③---|
④④口口 |④---|
52
口口①① |①---|
口口口口 |----|
③③口口 |②---|
②②口口 |③---|
53
口口口口 |①---|
③③①① |②-③-|
口口②② |----|
口口④口 |④---|
54
口①①口 |①---|
口②②口 |②---|
口③③口 |③---|
口④④口 |④---|
55
④口口④ |①---|
③口口③ |②---|
②口口② |③---|
①口口① |④---|
56
口口口口 |----|
口口口口 |----|
口口口口 |(128)----|
口口口口 |----|
57
①口①口 |①---|
口②口② |----|
口口口口 |②---|
口口口口 |----|
58
口口口口 |①---|
口口口口 |----|
①口①口 |②---|
口②口② |----|
59
口口口③ |①---|
口②①口 |----|
口①②口 |②---|
③口口口 |--③-|
60
口口口口 |----|
口口口口 |----|
口口口口 |----|
口口口口 |----|
61
口口口口 |----|
口口口口 |----|
口口口口 |----|
口口口口 |----|
62
口口口口 |----|
口口口口 |----|
口口口口 |----|
口口口口 |----|

accuracy: 100%
最終更新:2023年10月12日 09:44