アットウィキロゴ
ZIGZAG COWBOY
BEMANI Sound Team "劇団レコード"

ADVANCED

Level: 7
BPM: 128-140
Notes: 414

1
口口口口 |(140)----|
口口口口 |----|
口口口口 |----|
口口口口 |----|
2
口口口口 |①-②-|
①⑦③⑤ |③-④-|
⑧②⑥④ |⑤-⑥-|
口口口口 |⑦-⑧-|
3
③①⑤① |①---|
口口口口 |②---|
口⑥口口 |③-④-|
②④②⑥ |⑤-⑥-|
4
口②口口 |--①-|
口④口口 |②-③-|
口口③口 |--④-|
③⑤①口 |--⑤-|
5
口①④口 |①-②-|
④⑤③① |③-④-|
口②⑥口 |--⑤-|
口⑦口口 |⑥-⑦-|
6
②口口③ |①-②-|
口⑥⑦口 |③-④-|
口⑧⑤口 |⑤-⑥-|
④口口① |⑦-⑧-|
7
口②②口 |①-②-|
口⑥口④ |--③-|
⑦口⑤口 |④-⑤-|
③口①口 |⑥-⑦-|
8
口③⑥① |①-②-|
口口口口 |③-④-|
口⑦④口 |--⑤-|
④口②⑤ |⑥-⑦-|
9
①口口⑤ |①-②-|
口②⑥口 |③-④-|
③口口⑦ |⑤-⑥-|
口④⑧口 |⑦-⑧-|
10
⑤⑧⑧④ |①-②-|
口⑥③口 |③-④-|
口②⑦口 |⑤-⑥-|
①口口口 |⑦-⑧-|
11
②口口④ |①---|
口口口口 |②---|
口口口口 |③---|
①口口③ |④---|
12
②口口④ |①---|
口口口口 |②---|
口口口口 |③---|
①口口③ |④---|
13
⑥①口口 |①-②-|
②⑦口口 |③-④-|
⑧③口口 |⑤-⑥-|
④⑤口口 |⑦-⑧-|
14
⑥口④② |①-②-|
口⑤口口 |③-④-|
⑦口③口 |⑤-⑥-|
口口①口 |⑦---|
15
口口④口 |①-②-|
⑤口口③ |③-④-|
口⑥②⑧ |⑤-⑥-|
口口⑦① |⑦-⑧-|
16
④口口⑤ |①-②-|
口③口口 |③-④-|
②口口口 |--⑤-|
口①口口 |----|
17
⑦⑧口口 |①-②-|
⑤⑥口口 |③-④-|
③④口口 |⑤-⑥-|
①②口口 |⑦-⑧-|
18
口口②① |①-②-|
口口④③ |③-④-|
口口⑥⑤ |⑤-⑥-|
口口⑧⑦ |⑦-⑧-|
19
⑦①②口 |①-②-|
口③④口 |③-④-|
口⑤⑥口 |⑤-⑥-|
口口口口 |--⑦-|
20
口口口口 |①-②-|
④口②⑤ |③-④-|
口③⑥① |⑤-⑥-|
口⑦口口 |⑦---|
21
⑧口口⑦ |①-②-|
⑥口口⑤ |③-④-|
④口口③ |⑤-⑥-|
②口口① |⑦-⑧-|
22
口口口⑦ |①-②-|
⑥⑤口口 |③-④-|
口④③口 |⑤-⑥-|
口口②① |--⑦-|
23
口⑦口口 |--①-|
⑥②③口 |②-③-|
⑤口①口 |④-⑤-|
口④口口 |⑥-⑦-|
24
口口②① |①-②-|
口口④③ |③-④-|
口口⑥⑤ |⑤-⑥-|
口口⑧⑦ |⑦-⑧-|
25
①③⑤⑦ |①-②-|
口口口口 |③-④-|
②④⑥⑧ |⑤-⑥-|
口口口口 |⑦-⑧-|
26
⑦⑦口口 |①-②-|
口口⑤⑥ |③-④-|
口③④口 |⑤-⑥-|
①②口口 |--⑦-|
27
口口口口 |--①-|
③③口④ |②-③-|
⑥⑥⑤① |--④-|
口口②口 |⑤-⑥-|
28
口口口① |--①-|
⑦③⑤口 |②-③-|
口⑥口④ |④-⑤-|
口口口② |⑥-⑦-|
29
②口口② |①---|
口口④口 |--②-|
口③口口 |----|
口①①口 |③-④-|
30
口①①口 |①---|
③口⑤③ |②---|
口④口口 |③---|
口②②口 |④-⑤-|
31
①①口口 |①---|
②②口口 |②---|
⑤口③③ |③---|
口口④④ |④-⑤-|
32
口口①① |①---|
④④口口 |②---|
口口②② |③---|
③③口口 |④---|
33
④③③④ |①---|
口口①① |②---|
口口口口 |③---|
口口②② |④---|
34
口口口口 |①---|
口口口口 |----|
口①①口 |----|
口口口口 |----|
35
口②口口 |①---|
②①①口 |--②-|
口①①② |----|
口口②口 |----|
36
口口口口 |①---|
口口口口 |----|
口①①口 |----|
口口口口 |----|
37
口口口口 |①---|
口①①口 |----|
口口口口 |----|
口口口口 |----|
38
口口口口 |①---|
口②②口 |----|
口①①口 |②---|
口口口口 |----|
39
②③口② |①---|
口口④口 |②---|
口⑤口口 |③-④-|
①口⑥① |⑤-⑥-|
40
口口⑧口 |①-②-|
①②⑦口 |③-④-|
口⑥④③ |⑤-⑥-|
口⑤口口 |⑦-⑧-|
41
①②口口 |①-②-|
口⑥口⑧ |③-④-|
⑤口⑦口 |⑤-⑥-|
口口④③ |⑦-⑧-|
42
①口②口 |①-②-|
③口④口 |③-④-|
⑤口⑥口 |⑤-⑥-|
⑦口⑧口 |⑦-⑧-|
43
口①口② |①-②-|
口③口④ |③-④-|
口⑤口⑥ |⑤-⑥-|
口⑦口⑧ |⑦-⑧-|
44
口口口口 |①----②|
③①①③ |----|
④②②④ |③----④|
口口口口 |----|
45
③①①③ |①----②|
口口口口 |----|
口口口口 |③----④|
④②②④ |----|
46
口口口口 |①---|
口①①口 |----|
口①①口 |----|
口口口口 |----|
47
⑧④⑥② |①-②-|
口口口口 |③-④-|
口口口口 |⑤-⑥-|
①⑤③⑦ |⑦-⑧-|
48
③①⑤① |①---|
口口口口 |②---|
口⑥口口 |③-④-|
②④②⑥ |⑤-⑥-|
49
口②口口 |--①-|
口④口口 |②-③-|
口口③口 |--④-|
③⑤①口 |--⑤-|
50
口①④口 |①-②-|
④⑤③① |③-④-|
口②⑥口 |--⑤-|
口⑦口口 |⑥-⑦-|
51
②口口③ |①-②-|
口⑥⑦口 |③-④-|
口⑧⑤口 |⑤-⑥-|
④口口① |⑦-⑧-|
52
口②②口 |①-②-|
口⑥口④ |--③-|
⑦口⑤口 |④-⑤-|
③口①口 |⑥-⑦-|
53
口③⑥① |①-②-|
口口口口 |③-④-|
口⑦④口 |--⑤-|
④口②⑤ |⑥-⑦-|
54
①口口⑤ |①-②-|
口②⑥口 |③-④-|
③口口⑦ |⑤-⑥-|
口④⑧口 |⑦-⑧-|
55
⑤⑧⑧④ |①-②-|
口⑥③口 |③-④-|
口②⑦口 |⑤-⑥-|
①口口口 |⑦-⑧-|
56
口口口口 |----|
口②口口 |----|
口口口口 |(128)①---|
口口①口 |--②---|
57
③③①① |①---|
口口口口 |--②---|
口口口口 |③---|
口④②口 |--④---|
58
口口口口 |①---|
③③①① |--②---|
口口口口 |③---|
口④②口 |--④---|
59
②口口② |①---|
口口口口 |----|
口口①① |②---|
口③③口 |--③-|
60
口口口口 |----|
口口口口 |----|
口口口口 |----|
口口口口 |----|
61
口口口口 |----|
口口口口 |----|
口口口口 |----|
口口口口 |----|
62
口口口口 |----|
①口①口 |----|
口①口① |①---|
口口口口 |----|

accuracy: 100%
最終更新:2023年10月12日 09:52