アットウィキロゴ
ZIGZAG COWBOY
BEMANI Sound Team "劇団レコード"

EXTREME

Level: 9.8
BPM: 128-140
Notes: 778

1
口口口口 |(140)----|
口口口口 |----|
口口口口 |----|
口口口口 |----|
2
②口口③ |①-②-|
⑥口口口 |③-④⑤-⑥|
④⑤口口
口①①口

口口⑩口
口⑦⑨⑧
口口⑧⑨ |⑦-⑧-|
口⑩口口 |⑨-⑩-|
3
①①口② |①-②-|
口③⑤③ |③--④-⑤|
③口③口
④口①①

口⑨⑥⑨
口口口口
口⑧⑨⑧ |⑥-⑦-|
口⑦⑦口 |⑧-⑨-|
4
口口②口 |--①-|
口③口口 |②-③-|
口口口口
③口③①

口⑤口⑤
⑥口口口
⑧④口⑤ |④-⑤-|
口口口⑦ |⑥--⑦-⑧|
5
口④①口 |①-②-|
④①④① |③-④-|
口③口口
口口②口

口口口口
口⑤口口
口口⑥口 |--⑤-|
口⑦口口 |⑥-⑦-|
6
口口①① |①-②-|
口口口① |③-④-|
口②口口
④口口③

⑤⑤口口
⑧⑦口口
⑦⑧口口 |⑤-⑥--⑦|
口口⑥口 |--⑧---|
7
③口②② |①-②-|
口口口口 |③-④-|
口口口④
②②口①

口⑤口⑧
⑤口⑧口
⑦⑨口口 |⑤-⑥--⑦|
口口⑥口 |--⑧--⑨|
8
①④①口 |①-②-|
③④口④ |③-④-|
口口③②
口②口口

⑥口⑥口
口口口口
口口口口 |--⑤-|
⑤⑦口⑦ |⑥-⑦-|
9
口②口① |①-②-|
④口口③ |③-④--⑤|
口口口口
⑤口口口

口口⑨⑩
口口口口
⑦⑧⑩⑨ |⑥-⑦⑧-⑨|
口⑥⑪⑪ |--⑩--⑪|
10
①①口口 |--①-|
口口②② |②-③-|
③③口口
口口口口

⑦⑦④④
⑦⑦口口
口口⑤⑤ |④-⑤--⑥|
⑥⑥口口 |--⑦---|
11
⑧⑥②④ |①-②-|
口口口口 |③-④-|
口口口口 |⑤-⑥-|
⑤⑦③① |⑦-⑧-|
12
⑧⑥②④ |①-②-|
口⑨口口 |③-④-|
口口口口 |⑤-⑥-|
⑤⑦③① |⑦-⑧⑨|
13
口口②③ |①-②-|
口口③② |③--④-⑤|
④⑤①口
⑤④口口

⑥⑥口⑨
⑥⑦口⑦
口口口口 |--⑥-|
口口⑧口 |⑦-⑧--⑨|
14
口⑥①⑥ |①-②-|
④⑤口口 |③-④⑤--|
②口口③ |--⑥-|
②⑦口⑦ |⑦---|
15
⑨口⑩口 |①-②-|
④⑤⑥② |③--④⑤⑥|
③⑨③⑩ |⑦-⑧-|
①⑦①⑧ |⑨-⑩---|
16
口③口③ |①-②-|
口②④② |③-④-|
④口口口
①口①口

口⑧⑨⑩
⑥口口口
口⑦⑥口 |⑤-⑥-|
口⑤口口 |⑦--⑧⑨⑩|
17
⑤⑧口⑥ |①-②-|
口④⑤② |③--④-⑤|
③⑥③⑨ |--⑥-|
①⑦口⑦ |⑦-⑧--⑨|
18
口口口⑤ |①-②③--|
②③口⑤ |④-⑤-|
④口①口
④口口口

⑧口口口
口⑩口口
口⑦⑨口 |⑥-⑦⑧--|
口⑨⑥⑥ |⑨-⑩-|
19
③口①① |①-②-|
③口口④ |③-④--⑤|
⑤口口④
②口②口

口⑦口口
口⑦⑨口
口⑥⑨口 |⑥-⑦-|
口口⑧口 |⑧-⑨-|
20
口口①口 |①--②-③|
④口口③ |--④---|
口②口①
口④口口

⑥⑦⑧口
口口⑧口
口口口⑧ |⑤-⑥⑦--|
口口口⑤ |⑧---|
21
⑦⑧⑦⑧ |①-②-|
⑤⑥⑤⑥ |③-④-|
③④③④ |⑤-⑥-|
①②①② |⑦-⑧-|
22
⑥口⑤⑦ |①-②-|
④口②口 |③--④-⑤|
口③⑦口 |--⑥-|
①口口口 |--⑦-|
23
口①口口 |--①-|
口③②口 |②--③-④|
口④口①
②口③口

口⑦⑤口
口口口口
⑥口口口 |--⑤-|
口口口口 |⑥-⑦---|
24
③口口① |①-②-|
④口⑤② |③--④-⑤|
口③①口
口④②口

⑧口口⑧
口⑥口口
⑥口口口 |--⑥-|
⑦口⑦口 |⑦-⑧-|
25
口③①⑤ |--①-|
④⑥②口 |②--③-④|
⑥①③⑤ |--⑤-|
口②⑦口 |⑥-⑦---|
26
口③口口 |①-②-|
口口⑤口 |③--④-⑤|
口口②④
①口口口

⑥口⑥⑦
口口口⑦
⑦口口口 |--⑥-|
⑦口口口 |--⑦-|
27
⑥⑥③④ |--①-|
①①③④ |②-③-|
⑤③②② |--④-|
⑤③⑥⑥ |⑤-⑥-|
28
口口口③ |--①②--|
①②⑤③ |③-④--⑤|
口口口口
口④口口

⑥⑦口口
口⑨口口
⑨口口⑧ |--⑥⑦--|
口口⑧口 |⑧-⑨---|
29
②口①① |①---|
②口口口 |--②-|
口口口②
①①口②

口④口口
口④口口
③口口口 |----|
口③口口 |③-④-|
30
口口①③ |①-②-|
②口口口 |③-④-|
口④③①
口口口口

口⑥口口
⑩口⑤⑦
⑨口口口 |⑤-⑥-|
⑧口⑦⑤ |⑦--⑧⑨⑩|
31
①口①③ |①-②-|
⑥⑧⑤⑦ |③-④-|
口②③① |⑤-⑥-|
⑧④⑦⑤ |⑦-⑧-|
32
④口①③ |①-②-|
口⑧⑤⑦ |③-④-|
②⑥③① |⑤-⑥-|
口口⑦⑤ |⑦-⑧-|
33
④口①③ |①-②-|
口口口口 |③-④-|
口口③①
②口口口

口⑧口口
口⑦⑤口
口⑥口口 |⑤-⑥-|
⑦⑤⑦⑤ |⑦-⑧-|
34
①口①① |①-②-|
①口③④ |③-④---|
②口④③
口②口口

口口⑥⑥
⑧⑦口口
⑦⑧口口 |⑤-⑥-|
口口⑤⑤ |⑦-⑧---|
35
①①口⑥ |①--②③④|
口⑥口① |⑤-⑥-|
⑥口⑥①
②③④⑤

口⑧口口
口口口口
口口口口 |----|
⑦口口口 |⑦-⑧-|
36
②口口③ |①-②-|
⑤⑧⑩口 |③-④--⑤|
⑦⑥④⑨ |⑥-⑦⑧-⑨|
⑪①①① |⑩-⑪---|
37
③口口口 |①-②-|
口口口② |③-④--⑤|
口④口⑤
口①①①

口⑥⑥口
⑨⑦⑦口
口口口口 |⑥-⑦-|
口⑧⑧口 |⑧-⑨---|
38
③③口② |①-②-|
口口口口 |③-④⑤-⑥|
①①①⑤
⑥口口④

口口口⑨
口⑦⑦⑦
口⑪⑩口 |⑦-⑧-|
口⑧口口 |⑨-⑩--⑪|
39
①①①④ |①-②-|
②口口口 |③-④-|
口口口口
口③③③

口口口口
⑧⑥⑤⑦
⑤⑦⑧⑥ |⑤-⑥-|
口口口口 |⑦-⑧-|
40
④口口口 |①-②-|
口口③口 |③-④--⑤|
口口口⑤
①①口②

口口口⑦
⑧口口口
口口口口 |⑥-⑦-|
口⑨⑥口 |⑧-⑨---|
41
②口口⑤ |①-②③--|
口③口口 |④-⑤--⑥|
口口①⑥
④口口口

口口⑩口
口⑪口⑬
⑧口口口 |⑦-⑧⑨-⑩|
口⑨⑦⑫ |⑪-⑫--⑬|
42
口口口⑥ |①-②③-④|
②口⑦口 |⑤-⑥⑦-⑧|
④③①⑧
口⑤口口

⑩口口⑯
⑫⑪口⑭
口⑬⑮口 |⑨-⑩⑪-⑫|
口口⑨口 |⑬-⑭⑮-⑯|
43
④口口口 |①-②③-④|
口⑤①⑧ |⑤-⑥⑦-⑧|
②口口⑥
口③⑦口

口口口⑭
⑩口口口
⑫⑪⑨口 |⑨-⑩⑪-⑫|
口⑬口口 |⑬-⑭---|
44
②口②口 |①----②|
口②①口 |----|
口口口①
口口①口

口④口④
③口④口
口③口口 |③----④|
③口口口 |----|
45
口口口口 |①----②|
口①口口 |----|
①②口②
口①②口

④⑥④口
口④口③
口⑤③口 |③----④|
口口口③ |---⑤-⑥|
46
⑥口口② |①-②③-④|
口⑦③④ |⑤-⑥⑦--|
口口⑤口
①①①口

口口⑧⑪
⑨口口口
口⑩口口 |⑧-⑨⑩--|
口⑫⑫⑫ |⑪-⑫---|
47
口口口口 |①-②-|
③④②① |③-④-|
④③①②
口口口口

口口⑧⑤
口口⑦⑥
口口⑥⑦ |⑤-⑥-|
⑤⑧口口 |⑦-⑧-|
48
①①口② |①-②-|
口③⑤③ |③--④-⑤|
③口③口
④口①①

口⑨⑥⑨
口口口口
口⑧⑨⑧ |⑥-⑦-|
口⑦⑦口 |⑧-⑨-|
49
口口②口 |--①-|
口③口口 |②-③-|
口口口口
③口③①

口⑤口⑤
⑥口口口
⑧④口⑤ |④-⑤-|
口口口⑦ |⑥--⑦-⑧|
50
口④①口 |①-②-|
④①④① |③-④-|
口③口口
口口②口

口口口口
口⑤口口
口口⑥口 |--⑤-|
口⑦口口 |⑥-⑦-|
51
口口①① |①-②-|
口口口① |③-④-|
口②口口
④口口③

⑤⑤口口
⑧⑦口口
⑦⑧口口 |⑤-⑥--⑦|
口口⑥口 |--⑧---|
52
口口②② |①-②-|
口口口口 |--③-|
口口口③
②②口①

口口口口
④⑥⑤口
⑤⑧④口 |④-⑤--⑥|
⑦口⑥⑦ |--⑦--⑧|
53
①④①口 |①-②-|
③④口④ |③-④-|
口口③②
口②口口

⑥口⑥口
口口口口
口口口口 |--⑤-|
⑤⑦口⑦ |⑥-⑦-|
54
口②口① |①-②-|
④口口③ |③-④--⑤|
口口口口
⑤口口口

口口⑨⑩
口口口口
⑦⑧⑩⑨ |⑥-⑦⑧-⑨|
口⑥⑪⑪ |--⑩--⑪|
55
①①口口 |--①-|
口口②② |②-③-|
③③口口
口口口口

⑦⑦④④
⑦⑦口口
口口⑤⑤ |④-⑤--⑥|
⑥⑥口口 |--⑦---|
56
①口口口 |----|
口口口② |----|
口口口口 |(128)①---②-|
③口口口 |--③---|
57
口①口① |①-----|
③口③口 |--②---|
口②⑤口 |③---④-|
口④口口 |--⑤---|
58
③①③① |①-----|
口⑤口口 |--②---|
口④口口 |③---④-|
口②口口 |--⑤---|
59
②口口③ |①---②-|
口口口口 |--③---|
口口口口
口①口①

口④⑤口
④口口⑤
⑤口口④ |④---|
口⑤④口 |--⑤-|
60
口口口口 |----|
口口口口 |----|
口口口口 |----|
口口口口 |----|
61
口口口口 |----|
口口口口 |----|
口口口口 |----|
口口口口 |----|
62
①⑨口⑤ |----①②③④|
②⑩⑬⑥ |⑤⑥⑦⑧⑨⑩⑪⑫|
③⑪⑬⑦ |⑬---|
④⑫口⑧ |----|

accuracy: 100%
最終更新:2023年10月12日 10:31