アットウィキロゴ
Reincarnation Of Dead Petal
BEMANI Sound Team "Akhuta Works"

BASIC

Level: 3
BPM: 198
Notes: 324

1
口口口口 |----|
口口口口 |----|
口口口口 |----|
口口口口 |----|
2
①口口② |①---|
③口口④ |②---|
口口口口 |③---|
口口口口 |④---|
3
口口口口 |①---|
口口口口 |②---|
①口口② |③---|
③口口④ |④---|
4
口①②口 |①---|
口③④口 |②---|
口口口口 |③---|
口口口口 |④---|
5
口口口口 |①---|
口口口口 |②---|
口①②口 |③---|
口③④口 |④---|
6
口口口口 |①---|
口口口口 |②---|
③口口④ |③---|
①口口② |④---|
7
③口口④ |①---|
①口口② |②---|
口口口口 |③---|
口口口口 |④---|
8
口口口口 |①---|
口口口口 |②---|
口③④口 |③---|
口①②口 |④---|
9
口③口口 |①---|
口①②口 |②---|
口口口口 |③---|
口口口口 |----|
10
口口口口 |①---|
口口口口 |----|
口①①口 |----|
口口口口 |----|
11
口口口口 |----|
口口口口 |----|
口口口口 |①---|
①口口② |②---|
12
口口口口 |①---|
口①①口 |----|
口②③口 |②---|
口口口口 |③---|
13
口口口口 |①---|
口②③口 |②---|
口口口口 |③---|
①口口④ |④---|
14
口③口② |①---|
口口口口 |----|
口①①口 |②---|
口口口口 |③---|
15
口口口口 |①---|
口口①口 |----|
口口口口 |②---|
②③口口 |③---|
16
口口口口 |①---|
口③②口 |----|
口口口口 |②---|
口口①口 |③---|
17
口口口② |①---|
①口口口 |②---|
口③口口 |----|
口口口口 |③---|
18
口口①口 |①---|
口②口口 |②---|
口口③口 |③---|
口④口口 |④---|
19
口口口口 |①---|
口②①口 |----|
口口③口 |②---|
口口口口 |③---|
20
口口口口 |①---|
口口口口 |----|
口口口口 |②---|
②口口① |----|
21
①口口② |①---|
口口口口 |----|
口口口口 |②---|
口口口口 |----|
22
口口口口 |①---|
口①口口 |----|
口②口口 |②---|
口口口口 |----|
23
口口口口 |①---|
口口口口 |----|
口口口口 |----|
口①口口 |----|
24
口口口④ |①---|
口口③口 |②---|
口口口② |③---|
口口①口 |④---|
25
①口口口 |①---|
口口③口 |----|
口口②口 |②---|
口口口口 |③---|
26
口口①口 |①---|
口②口口 |②---|
口口③口 |③---|
口④口口 |④---|
27
口口口口 |①---|
口口口口 |②---|
④口口② |③---|
③口口① |④---|
28
口口口口 |①---|
口④②口 |②---|
口③①口 |③---|
口口口口 |④---|
29
②口①口 |①---|
口口口口 |----|
口口口口 |②---|
口口口口 |----|
30
口口口口 |①---|
口口口口 |----|
口口口口 |②---|
口②口① |----|
31
口口口口 |①---|
口④①口 |②---|
口②③口 |③---|
口口口口 |④---|
32
④口口口 |①---|
口口口③ |②---|
②口口口 |③---|
口口口① |④---|
33
口④①口 |①---|
口③口口 |②---|
口②口口 |③---|
口口口口 |④---|
34
口口口口 |①---|
口口①口 |②---|
口②口口 |③---|
口④③口 |④---|
35
口口口口 |①---|
口口口口 |②---|
④口口② |③---|
③口口① |④---|
36
口口口口 |①---|
口④②口 |②---|
口③①口 |③---|
口口口口 |④---|
37
②口①口 |①---|
口口口口 |----|
口口口口 |②---|
口口口口 |----|
38
口口口口 |①---|
口口口口 |----|
口口口口 |②---|
口②口① |----|
39
口口口口 |①---|
②②①① |----|
口口口口 |②---|
口口口口 |----|
40
口④口口 |①---|
口口③口 |②---|
口②口口 |③---|
口口①口 |④---|
41
口口口① |①---|
口口口口 |----|
口口口口 |----|
口口口口 |----|
42
口口口口 |----|
②②口口 |----|
①①口口 |①---|
口口口口 |②---|
43
①①口口 |①---|
口口口口 |----|
口口口口 |----|
口口口口 |----|
44
口口口口 |①---|
④④②② |②---|
③③①① |③---|
口口口口 |④---|
45
口①①口 |①---|
口口口口 |----|
口口口口 |----|
口口口口 |----|
46
口口口口 |----|
口口②② |----|
口口①① |①---|
口口口口 |②---|
47
口口①① |①---|
口口口口 |----|
口口口口 |----|
口口口口 |----|
48
口口口口 |①---|
口②②口 |----|
口①①口 |②---|
口口口口 |----|
49
口口口口 |①---|
口口口口 |----|
口口口口 |----|
①口口① |----|
50
口口口口 |----|
②②口口 |----|
①①口口 |①---|
口口口口 |②---|
51
①①口口 |①---|
口口口口 |----|
口口口口 |----|
口口口口 |----|
52
口口口口 |①---|
④④②② |②---|
③③①① |③---|
口口口口 |④---|
53
口①①口 |①---|
口口口口 |----|
口口口口 |----|
口口口口 |----|
54
口口口口 |----|
口口②② |----|
口口①① |①---|
口口口口 |②---|
55
②②①① |①---|
口口口口 |②---|
口口口口 |③---|
④④③③ |④---|
56
口口口口 |①---|
④④①① |②---|
②②③③ |③---|
口口口口 |④---|
57
④③②① |①---|
口口口口 |②---|
口口口口 |③---|
口口口口 |④---|
58
口口口口 |①---|
口口口口 |②---|
口口口口 |③---|
④③②① |④---|
59
口口口口 |①---|
④③②① |②---|
口口口口 |③---|
口口口口 |④---|
60
口口口口 |①---|
口口口口 |②---|
④③②① |③---|
口口口口 |④---|
61
口口口口 |①---|
①②③④ |②---|
口口口口 |③---|
口口口口 |④---|
62
①口口② |①---|
口口口口 |②---|
口③④口 |③---|
口口口口 |④---|
63
口口口口 |①---|
口②②口 |②---|
口③③口 |----|
①口口口 |③---|
64
口口口口 |----|
口①①口 |①---|
口口口口 |②---|
口②②口 |----|
65
①口口① |①---|
口口口口 |----|
口口口口 |----|
口口口口 |----|
66
口口口口 |①---|
口口口口 |----|
口①①口 |----|
口口口口 |----|
67
口口口口 |----|
口①口口 |----|
口口②口 |①---|
口口口口 |②---|
68
口口口口 |①---|
口口口口 |----|
口口口口 |----|
口口口① |----|
69
口口口口 |----|
口口③口 |①---|
口②口口 |②---|
①口口口 |③---|
70
口口口① |①---|
口②口口 |----|
口口口口 |②---|
口口口口 |----|
71
口口②口 |①---|
口口口口 |----|
口口①口 |②---|
口口口口 |----|
72
口口口口 |①---|
①口口口 |----|
口②口口 |②---|
口口口口 |----|
73
口口口口 |①---|
口口口口 |----|
口口口② |②---|
口口①口 |----|
74
口口②口 |①---|
口①口口 |----|
口口口口 |②---|
口口口口 |----|
75
口口口口 |①---|
口②口口 |----|
口口①口 |②---|
口口口口 |----|
76
口口口口 |①---|
口口①口 |----|
口②口口 |②---|
口口口口 |----|
77
口口口口 |①---|
口口口口 |----|
口口口③ |②---|
①口口② |③---|
78
③④②① |①---|
口口口口 |②---|
口口口口 |③---|
口口口口 |④---|
79
口口口口 |①---|
③④②① |②---|
口口口口 |③---|
口口口口 |④---|
80
口口口口 |①---|
口口口口 |②---|
③④②① |③---|
口口口口 |④---|
81
口口口口 |①---|
口口②口 |----|
口③口口 |②---|
口口口① |③---|
82
口口口口 |①---|
口口口口 |②---|
口口口口 |③---|
①②④③ |④---|
83
口口口口 |①---|
口口口口 |②---|
①②④③ |③---|
口口口口 |④---|
84
口口口口 |①---|
口①①口 |----|
口口口口 |②---|
口②②口 |----|
85
①口口① |①---|
口口口口 |----|
②口口② |②---|
口口口口 |----|
86
口①①口 |①---|
口口口口 |----|
口②②口 |②---|
口口口口 |----|
87
①口口② |①---|
③口口④ |②---|
口口口口 |③---|
口口口口 |④---|
88
口口口口 |①---|
口口口口 |②---|
①口口② |③---|
③口口④ |④---|
89
口①②口 |①---|
口③④口 |②---|
口口口口 |③---|
口口口口 |④---|
90
口口口口 |①---|
口口口口 |②---|
口①②口 |③---|
口③④口 |④---|
91
口口口口 |①---|
口口口口 |②---|
③口口④ |③---|
①口口② |④---|
92
③口口④ |①---|
①口口② |②---|
口口口口 |③---|
口口口口 |④---|
93
口口口口 |①---|
口口口口 |②---|
口③④口 |③---|
口①②口 |④---|
94
口③口口 |①---|
口①②口 |②---|
口口口口 |③---|
口口口口 |----|
95
口口口口 |①---|
口口口口 |----|
口①①口 |----|
口口口口 |----|
96
①口口② |①---|
口口口口 |②---|
口口口口 |----|
口口口口 |----|

accuracy: 100%
最終更新:2023年10月23日 13:58