アットウィキロゴ
Reincarnation Of Dead Petal
BEMANI Sound Team "Akhuta Works"

ADVANCED

Level: 7
BPM: 198
Notes: 519

1
口口口口 |----|
口口口口 |----|
口口口口 |----|
口口口口 |----|
2
①口口③ |①---|
口②④口 |②---|
口口口口 |③---|
口口口口 |④---|
3
口口口口 |①---|
口口口口 |②---|
①口口③ |③---|
口②④口 |④---|
4
口②④口 |①---|
①口口③ |②---|
口口口口 |③---|
口口口口 |④---|
5
口口口口 |①---|
口口口口 |②---|
口②④口 |③---|
①口口③ |④---|
6
①口口③ |①---|
口口口口 |②---|
口②④口 |③---|
口口口口 |④---|
7
口口口口 |①---|
口②④口 |②---|
口口口口 |③---|
①口口③ |④---|
8
口②④口 |①---|
口口口口 |②---|
①口口③ |③---|
口口口口 |④---|
9
口口口⑤ |①---|
①口④口 |②---|
口口③口 |③---④-|
口②口口 |--⑤---|
10
口口口口 |①---|
口⑦⑥口 |②-③-|
①①口口 |④-⑤-|
⑤④③② |⑥-⑦-|
11
④④口② |①---|
①口口口 |②---|
③③口口 |③---|
口口口口 |④---|
12
口口口口 |①---|
③口②④ |②---|
⑤口口⑥ |③-④-|
口口①① |⑤-⑥-|
13
口①②口 |①-②-|
口③④口 |③-④-|
口⑤⑥口 |⑤-⑥-|
口⑦⑧口 |⑦-⑧-|
14
①⑤口口 |①---|
口④口口 |②---|
口③口口 |③---④-|
口口口② |--⑤---|
15
口口③口 |①---|
④口①口 |②---|
口口口⑤ |③-④-|
②⑥口口 |⑤-⑥-|
16
口口口口 |①---|
口②③③ |②---|
口口口口 |----|
口口①口 |③---|
17
口②②口 |①---|
口口口口 |②---|
③③①① |----|
口口口口 |③---|
18
口口⑤① |①---|
口口④① |②---|
口口③口 |③---④-|
口②②口 |--⑤---|
19
口口口② |①---|
③①口口 |②-③-|
口⑦口④ |④-⑤-|
⑤口⑥口 |⑥-⑦-|
20
口口口口 |①---|
口④①口 |②-③-|
⑥口③口 |④---|
口②口⑤ |⑤-⑥-|
21
口口⑤口 |①---|
④⑥口① |②-③-|
口口口③ |④---⑤-|
②口口口 |--⑥---|
22
口口口口 |①---|
口口口口 |----|
口口①口 |②---|
②口口② |----|
23
①口口① |①---|
口口④口 |②---|
口③口口 |③---|
口口②口 |④---|
24
①⑤口口 |①-②-|
口口⑥② |③-④-|
③⑦口口 |⑤-⑥-|
口口⑧④ |⑦-⑧-|
25
口⑤口② |①---|
③①⑥口 |②-③-|
口⑦口④ |④-⑤-|
口口口口 |⑥-⑦-|
26
口口口⑦ |①-②-|
口口⑥口 |③-④-|
④口口⑤ |⑤---⑥-|
②口①③ |--⑦---|
27
口①②口 |①-②-|
口⑤⑥口 |③-④-|
口③④口 |⑤-⑥-|
口⑦⑧口 |⑦-⑧-|
28
③口口⑥ |①---②-|
②口口⑤ |--③---|
①口口④ |④---⑤-|
口口口口 |--⑥---|
29
口口口口 |①---|
口②④口 |②---|
口口口口 |③---|
③①①③ |④---|
30
②口口④ |①---|
口口口口 |②---|
③①①③ |③---|
口口口口 |④---|
31
⑤①口口 |①-②-|
口口②⑥ |③-④-|
⑦③口口 |⑤-⑥-|
口口④⑧ |⑦-⑧-|
32
口口口④ |①-②-|
③口口口 |③-④-|
口⑦⑥② |⑤-⑥-|
①⑤⑧口 |⑦-⑧-|
33
口⑤口② |①---|
③①⑥口 |②-③-|
口⑦口④ |④-⑤-|
口口口口 |⑥-⑦-|
34
口口口⑦ |①-②-|
口口⑥口 |③-④-|
④口口⑤ |⑤---⑥-|
②口①③ |--⑦---|
35
口①②口 |①-②-|
口⑤⑥口 |③-④-|
口③④口 |⑤-⑥-|
口⑦⑧口 |⑦-⑧-|
36
③口口⑥ |①---②-|
②口口⑤ |--③---|
①口口④ |④---⑤-|
口口口口 |--⑥---|
37
口口口口 |①---|
口②④口 |②---|
口口口口 |③---|
③①①③ |④---|
38
②口口④ |①---|
口口口口 |②---|
③①①③ |③---|
口口口口 |④---|
39
口口口口 |①---|
口①①口 |----|
口口口口 |②---|
口②②口 |----|
40
①口口② |①-②-|
③口口④ |③-④-|
⑤口口⑥ |⑤-⑥-|
⑦口口⑧ |⑦-⑧-|
41
口口口口 |①---|
口①②口 |----|
口口口口 |②---|
口口口口 |----|
42
口口⑤口 |①---|
口口口④ |----|
口①③口 |②-③-|
口口口② |④-⑤-|
43
口口口① |①---|
口②口口 |----|
口口口口 |②---|
口口口口 |----|
44
口①⑤口 |①-②-|
②⑥口口 |③-④-|
口③⑦口 |⑤-⑥-|
④⑧口口 |⑦-⑧-|
45
口口口口 |①---|
口口口口 |----|
口②口口 |②---|
口口①口 |----|
46
口⑤口口 |①---|
④口①口 |----|
口③口口 |②-③-|
②口口口 |④-⑤-|
47
口口口口 |①---|
口②①口 |----|
口口口口 |②---|
口口口口 |----|
48
口①①口 |①---|
口口口口 |②---③-|
口③④口 |④---|
②口口② |----|
49
口口口口 |①---|
口②①口 |----|
口口口口 |②---|
口口口口 |----|
50
口⑤口口 |①---|
④口口口 |----|
口③①口 |②-③-|
②口口口 |④-⑤-|
51
①口口口 |①---|
口口②口 |----|
口口口口 |②---|
口口口口 |----|
52
口⑤①口 |①-②-|
口口⑥② |③-④-|
口⑦③口 |⑤-⑥-|
口口⑧④ |⑦-⑧-|
53
口口口口 |①---|
口口口口 |----|
口口②口 |②---|
口①口口 |----|
54
口口⑤口 |①---|
口①口④ |----|
口口③口 |②-③-|
口口口② |④-⑤-|
55
①口口② |①---|
口①②口 |②---|
③口口④ |③---|
口③④口 |④---|
56
口①②口 |①---|
①口口② |②---|
口③④口 |③---|
③口口④ |④---|
57
口口口口 |①---|
口①①口 |----|
口⑤④口 |②-③-|
口③②口 |④-⑤-|
58
⑧口口① |①-②-|
②口口⑦ |③-④-|
⑥口口③ |⑤-⑥-|
④口口⑤ |⑦-⑧-|
59
口口①① |①---|
③③口口 |②---|
口②口口 |③---|
口口④口 |④---|
60
①口⑧口 |①-②-|
口⑦口② |③-④-|
③口⑥口 |⑤-⑥-|
口⑤口④ |⑦-⑧-|
61
口①口② |①-②-|
③口④口 |③-④-|
口⑤口⑥ |⑤-⑥-|
⑦口⑧口 |⑦-⑧-|
62
③口口④ |①---|
⑤②②⑥ |②---|
口口口口 |③-④-|
口①口口 |⑤-⑥-|
63
口②②口 |①---|
口④④口 |②---|
口①口口 |③---|
口口③口 |④---|
64
②口口② |①---|
口④④口 |②---|
⑤口①⑤ |③---④-|
口③③口 |--⑤---|
65
口①①口 |①---|
口口口口 |----|
口口口口 |----|
口口口口 |----|
66
口口口口 |①---|
口口口口 |----|
口口口口 |----|
①口口① |----|
67
口口①口 |----|
口②口口 |----|
口口③口 |①-②-|
口④口口 |③-④-|
68
口口口口 |①---|
口口口口 |----|
口口口口 |----|
口口①口 |----|
69
口口口口 |----|
口口③口 |①---|
口②口口 |②---|
①口口口 |③---|
70
①①口口 |①---|
口口④口 |②---|
口口口口 |③---|
口③口② |④---|
71
③口口口 |①---|
口④口口 |②---|
口①口② |③---|
口口口口 |④---|
72
口口口② |①---|
口口口口 |②---|
口口①④ |③---|
③口口口 |④---|
73
口口①口 |①---|
口②口口 |②-③-|
④⑥③⑤ |④-⑤-|
口口⑦口 |⑥-⑦-|
74
①①口口 |①---|
口口④口 |②---|
口口口口 |③---|
口③口② |④---|
75
③口口口 |①---|
口④口口 |②---|
口①口② |③---|
口口口口 |④---|
76
口口口② |①---|
口口④口 |②---|
口口①口 |③---|
③口口口 |④---|
77
口口口口 |①---|
口①④④ |②---|
口口③③ |③---|
口口②② |④---|
78
①③④② |①-②-|
口口口口 |③-④-|
⑤⑦⑧⑥ |⑤-⑥-|
口口口口 |⑦-⑧-|
79
口口口口 |①-②-|
①③④② |③-④-|
口口口口 |⑤-⑥-|
⑤⑥⑦⑧ |⑦-⑧-|
80
口口口口 |①-②-|
①③④② |③-④-|
⑤⑦⑧⑥ |⑤-⑥-|
口口口口 |⑦-⑧-|
81
①口②② |①---|
口口③③ |②---|
口口④④ |③---|
口口口口 |④---|
82
①③④② |①-②-|
口口口口 |③-④-|
⑤⑦⑧⑥ |⑤-⑥-|
口口口口 |⑦-⑧-|
83
口口口口 |①-②-|
①③④② |③-④-|
口口口口 |⑤-⑥-|
⑤⑥⑦⑧ |⑦-⑧-|
84
⑤①①口 |①---|
④口口口 |②---|
③口②口 |③---④-|
口口口口 |--⑤---|
85
口②②⑤ |①---|
口口口④ |②---|
口①口③ |③---④-|
口口口口 |--⑤---|
86
口②②口 |①---|
口口口口 |②---|
口口④口 |③---|
③口①口 |④---|
87
①口口③ |①---|
口②④口 |②---|
口口口口 |③---|
口口口口 |④---|
88
口口口口 |①---|
口口口口 |②---|
①口口③ |③---|
口②④口 |④---|
89
口②④口 |①---|
①口口③ |②---|
口口口口 |③---|
口口口口 |④---|
90
口口口口 |①---|
口口口口 |②---|
口②④口 |③---|
①口口③ |④---|
91
①口口③ |①---|
口口口口 |②---|
口②④口 |③---|
口口口口 |④---|
92
口口口口 |①---|
口②④口 |②---|
口口口口 |③---|
①口口③ |④---|
93
口②④口 |①---|
口口口口 |②---|
①口口③ |③---|
口口口口 |④---|
94
口口口⑤ |①---|
①口④口 |②---|
口口③口 |③---④-|
口②口口 |--⑤---|
95
口口口口 |①---|
口口④口 |②---|
①①③口 |③---|
口口②口 |④---|
96
②口①口 |①---|
口口口口 |②---|
口口口口 |----|
口口口口 |----|

accuracy: 100%
最終更新:2023年10月23日 18:45