アットウィキロゴ
Reincarnation Of Dead Petal
BEMANI Sound Team "Akhuta Works"

EXTREME

Level: 10.4
BPM: 198
Notes: 913

1
口口口口 |----|
口口口口 |----|
口口口口 |----|
口口口口 |----|
2
①口①③ |①---|
口口口口 |②---|
口口口口 |③---|
④口口② |④---|
3
口口口口 |①---|
①口口③ |②---|
④口④② |③---|
口口口口 |④---|
4
③①口① |①---|
口口口口 |②---|
口口口口 |③---|
②口口④ |④---|
5
口口口口 |①---|
③口口① |②---|
②口口④ |③---|
口口口口 |④---|
6
①口①③ |①---|
口口口口 |②---|
口口口口 |③---|
④口④② |④---|
7
口口口口 |①---|
①口①③ |②---|
④口④② |③---|
口口口口 |④---|
8
①①⑤⑤ |①---|
口口口口 |②-③-④-|
口⑥⑦⑧ |⑤---|
④③②口 |⑥-⑦-⑧-|
9
⑦⑦口口 |①---|
①①⑤⑤ |②-③-④-|
⑥⑥口口 |⑤---⑥-|
口④③② |--⑦---|
10
口口口① |①---|
口口口口 |②③④⑤|
口口口①
②③④⑤

口口口口
⑥⑦⑧⑨
⑩⑪⑫⑬ |⑥⑦⑧⑨|
口口口口 |⑩⑪⑫⑬|
11
①③口② |①---|
口⑤④口 |②---|
口口⑧口 |③-④-⑤-|
口⑦⑥口 |⑥-⑦-⑧-|
12
①④⑤口 |①---|
⑥口口③ |②---|
①⑦口口 |③-④-⑤-|
⑧口口② |⑥-⑦-⑧-|
13
⑩口口⑦ |①-②-③-|
口⑥③⑪ |④-⑤-⑥-|
⑧⑫⑤② |⑦-⑧-⑨-|
口④①⑨ |⑩-⑪-⑫-|
14
口①①口 |①---|
⑤口口⑥ |--②-③-|
口口⑦口 |④---⑤-|
②③④口 |--⑥-⑦-|
15
③②口口 |①---|
口④⑧口 |②---|
⑤⑦口① |③-④-⑤-|
口口⑥口 |⑥-⑦-⑧-|
16
③口②⑥ |①---|
①口口② |②---|
口⑤口口 |----③-|
口口④口 |④-⑤-⑥-|
17
口②口口 |①---|
②口口⑥ |②---|
口④①⑤ |----③-|
③口口口 |④-⑤-⑥-|
18
①⑧①⑦ |①---②-|
③④⑤口 |③-④-⑤-|
⑥⑧⑦口 |⑥---⑦-|
口⑥口② |--⑧---|
19
②口③口 |①---|
⑧④⑨口 |②-③-④-|
口⑩⑦① |⑤-⑥-⑦-|
口⑥①⑤ |⑧-⑨-⑩-|
20
⑤①⑤① |①---|
口③口② |②-③-④-|
⑥口⑦口 |⑤---|
口⑧④口 |⑥-⑦-⑧-|
21
⑤①⑤① |①---|
⑦口口⑥ |②-③-④-|
口③口② |⑤---⑥-|
⑦口④⑥ |--⑦---|
22
口口口① |①---|
口②①口 |②---|
口口③③ |③---|
口④口口 |④---|
23
⑦⑨④⑩ |①---|
①③⑥口 |②-③-④-|
①⑤⑧口 |⑤-⑥-⑦-|
口口口② |⑧-⑨-⑩-|
24
⑨⑪⑥口 |①-②-③-|
③⑤⑩⑧ |④-⑤-⑥-|
口⑦⑫② |⑦-⑧-⑨-|
①口④口 |⑩-⑪-⑫-|
25
口口口口 |①---|
④③⑩口 |②-③-④-|
②⑥口⑨ |⑤-⑥-⑦-|
⑤①⑦⑧ |⑧-⑨-⑩-|
26
⑧④②③ |①-②-③-|
口⑤口① |④-⑤-⑥-|
口口⑥⑩ |⑦---⑧-|
口⑦口⑨ |--⑨-⑩-|
27
口⑥②③ |①-②-③-|
⑤口①⑪ |④-⑤-⑥-|
④⑧⑦⑫ |⑦-⑧-⑨-|
⑨口⑩口 |⑩-⑪-⑫-|
28
⑥③⑤② |①---②-|
口①①口 |--③---|
口④④口 |④---⑤-|
⑥③⑤② |--⑥---|
29
口③口⑦ |①---②-|
④①①口 |③-④-⑤-|
口⑤⑥⑩ |⑥---⑦-|
口⑧⑨② |⑧-⑨-⑩-|
30
②④③⑪ |①---②-|
⑤⑦⑩① |③-④-⑤-|
⑥⑨⑧口 |⑥-⑦-⑧-|
口口口口 |⑨-⑩-⑪-|
31
口④⑧口 |①-②-③-|
⑤⑨⑪⑦ |④-⑤-⑥-|
⑥⑩口⑫ |⑦-⑧-⑨-|
①②③口 |⑩-⑪-⑫-|
32
⑥⑤口口 |①-②-③-|
④口口口 |④-⑤-⑥-|
口口①口
③②口口

口口⑨⑩
口口⑪⑦
口口⑫口 |⑦-⑧-⑨-|
口口⑧口 |⑩-⑪-⑫-|
33
口口口口 |①---|
④③⑩口 |②-③-④-|
②⑥口⑨ |⑤-⑥-⑦-|
⑤①⑦⑧ |⑧-⑨-⑩-|
34
⑧④②③ |①-②-③-|
口⑤口① |④-⑤-⑥-|
口口⑥⑩ |⑦---⑧-|
口⑦口⑨ |--⑨-⑩-|
35
口⑥②③ |①-②-③-|
⑤口①⑪ |④-⑤-⑥-|
④⑧⑦⑫ |⑦-⑧-⑨-|
⑨口⑩口 |⑩-⑪-⑫-|
36
③⑤⑥④ |①-②-③-|
口①②口 |④-⑤-⑥-|
⑪⑦⑧⑫ |⑦-⑧-⑨-|
口⑨⑩口 |⑩-⑪-⑫-|
37
⑪③⑥口 |①---②-|
④①①⑩ |③-④-⑤-|
⑨⑤⑥口 |⑥-⑦-⑧-|
⑦⑧口② |⑨-⑩-⑪-|
38
口③⑩① |①-②-③-|
⑤④②口 |④-⑤-⑥-|
口⑥⑨① |⑦-⑧-⑨-|
口⑧⑦口 |--⑩---|
39
⑨口口④ |①-②-③-|
⑧口口③ |④---⑤-|
⑦⑤⑩② |⑥-⑦-⑧-|
⑥口口① |⑨---⑩-|
40
口①②口 |①-②-③-|
口⑤④③ |④-⑤-⑥-|
口⑥口口
口口口口

口⑫口口
口口口口
⑨口⑪⑩ |⑦-⑧-⑨-|
口⑧⑦口 |⑩-⑪-⑫-|
41
口口⑦① |①---②-|
口⑤④③ |--③-④-|
口口口口 |⑤-⑥---|
②口⑧⑥ |⑦---⑧-|
42
口口口口 |①-②-③-|
口口⑤口 |④---⑤-|
①②③口
④口口口

口⑩口⑪
口⑧口⑨
⑫口口⑬ |⑥⑦⑧⑨|
口⑥口⑦ |⑩⑪⑫⑬|
43
①口②口 |①---②-|
⑥口口口 |--③-④-|
口口⑧口 |⑤-⑥---|
③④⑤⑦ |⑦---⑧-|
44
⑧②⑦① |①-②-③-|
⑩④⑨③ |④-⑤-⑥-|
⑫⑥⑪⑤ |⑦-⑧-⑨-|
口口口口 |⑩-⑪-⑫-|
45
口⑤④③ |①---②-|
⑦口口口 |--③-④-|
口口口⑥ |⑤-⑥---|
⑧①口② |⑦---⑧-|
46
口⑤口口 |①-②-③-|
口口口口 |④---⑤-|
③②①口
口口④口

口口口口
⑪⑦⑥⑩
口⑬⑫口 |⑥⑦⑧⑨|
口⑨口⑧ |⑩⑪⑫⑬|
47
③④⑤① |①---②-|
口⑥口口 |--③-④-|
口⑧口口 |⑤-⑥---|
②口口⑦ |⑦---⑧-|
48
⑤⑤④④ |①-②---|
②口口① |③---④-|
②⑦口① |⑤---⑥-|
⑥③③口 |--⑦---|
49
⑦口⑧口 |①---②-|
②口①⑥ |--③-④-|
口口口① |⑤-⑥---|
口⑤④③ |⑦---⑧-|
50
口⑩⑪口 |①-②-③-|
⑧④口⑨ |④---⑤-|
①②③⑤ |⑥⑦⑧⑨|
⑫⑥⑦⑬ |⑩⑪⑫⑬|
51
①口口口 |①---②-|
口口②⑦ |--③-④-|
口③④⑤ |⑤-⑥---|
⑧⑥口口 |⑦---⑧-|
52
①⑦②⑧ |①-②-③-|
③⑨④⑩ |④-⑤-⑥-|
⑤⑪⑥⑫ |⑦-⑧-⑨-|
口口口口 |⑩-⑪-⑫-|
53
③④⑤口 |①---②-|
口口口⑦ |--③-④-|
⑥口口口 |⑤-⑥---|
②⑧①口 |⑦---⑧-|
54
口口⑨口 |①-②-③-|
③②①⑧ |④---⑤-|
⑪⑤⑦口 |⑥-⑦-⑧-|
口⑩④⑥ |⑨-⑩-⑪-|
55
④口口① |①---|
②口③口 |②---|
口④口① |③---|
②口口③ |④---|
56
④②口口 |①---|
④口口① |②---|
②口口③ |③---|
口口①③ |④---|
57
口⑤⑧② |①---|
口⑥⑨③ |②-③-④-|
口⑦⑩④ |⑤-⑥-⑦-|
口①①口 |⑧-⑨-⑩-|
58
⑦口⑩④ |①-②-③-|
⑧口⑪⑤ |④-⑤-⑥-|
⑨口⑫⑥ |⑦-⑧-⑨-|
①②③口 |⑩-⑪-⑫-|
59
口⑪⑩⑨ |①---②-|
⑥①口③ |③-④-⑤-|
⑦口口④ |⑥-⑦-⑧-|
⑧②口⑤ |⑨-⑩-⑪-|
60
口⑬⑫⑪ |①②③④|
⑧⑥⑤⑦ |⑤⑥⑦⑧|
口②①⑨ |⑨---⑩-|
⑩④③口 |⑪-⑫-⑬-|
61
⑩⑪⑫口 |①-②-③-|
口⑨⑧⑦ |④-⑤-⑥-|
④⑤⑥口 |⑦-⑧-⑨-|
口③②① |⑩-⑪-⑫-|
62
口口口② |①---|
口口口口 |②---|
③④⑤② |③-④-⑤-|
①⑧⑦⑥ |⑥-⑦-⑧-|
63
①④④④ |①-②-③-|
⑧⑧⑧② |④---|
口⑥口⑤ |⑤-⑥-⑦-|
③口口⑦ |⑧---|
64
④④④⑤ |①-②-③-|
⑥口⑦⑤ |④---|
①⑥⑦⑤ |⑤---⑥-|
⑥③②⑦ |--⑦---|
65
口口口口 |①---|
口①口口 |----|
①口口口 |----|
口口①口 |----|
66
口口口口 |①---|
口口口口 |----|
口口口口 |----|
口①口口 |----|
67
口④口① |----|
②口⑤口 |----|
口⑥口③ |①-②-③-|
口口口口 |④-⑤-⑥-|
68
口口口口 |①---|
口口口口 |----|
口口口口 |----|
口口①口 |----|
69
⑨口口口 |----|
口⑧口口 |①-②-③-|
口③⑦⑥ |④-⑤-⑥-|
①②④⑤ |⑦-⑧-⑨-|
70
口②③① |①---|
口⑧④口 |②-③-④-|
口⑤口口 |⑤---|
⑥⑦口口 |⑥-⑦-⑧-|
71
口⑤⑧口 |①---|
⑥⑩④⑨ |②-③-④-|
口⑦①③ |⑤-⑥-⑦-|
口口②口 |⑧-⑨-⑩-|
72
口口口口 |①---|
口口⑤口 |②-③-④-|
②⑧①口 |⑤---|
③④⑦⑥ |⑥-⑦-⑧-|
73
②③④⑤ |①---|
口口口口 |②③④⑤|
口口口①
口口口口

口口口口
⑥⑦⑧⑨
⑩⑪⑫⑬ |⑥⑦⑧⑨|
口口口口 |⑩⑪⑫⑬|
74
口②③口 |①---|
口④口⑥ |②-③-④-|
口⑧⑦口 |⑤---|
口①⑤口 |⑥-⑦-⑧-|
75
口口⑥口 |①---|
④⑤①⑦ |②-③-④-|
③口⑧⑩ |⑤-⑥-⑦-|
口②⑨口 |⑧-⑨-⑩-|
76
⑥③口④ |①---|
口口②口 |②-③-④-|
⑤①口口 |⑤---|
口口口口 |⑥---|
77
口⑪⑫⑩ |①---|
⑨⑤④⑧ |②③④⑤|
⑩③②口 |⑥⑦⑧⑨|
⑦①口⑥ |⑩-⑪-⑫-|
78
⑦口口口 |①-②-③-|
口⑥⑤口 |④-⑤-⑥-|
口⑨④① |⑦---|
⑧③②⑩ |⑧-⑨-⑩-|
79
口⑦⑥⑪ |①-②-③-|
⑧⑤⑫③ |④-⑤-⑥-|
④口⑩② |⑦-⑧-⑨-|
口⑨①口 |⑩-⑪-⑫-|
80
⑧⑦⑥口 |①-②-③-|
口⑤口⑫ |④-⑤-⑥-|
④①口⑨ |⑦-⑧-⑨-|
⑪⑩③② |⑩-⑪-⑫-|
81
口口口口 |①---|
①⑤④口 |②③④⑤|
口③②口
口口口口

⑦⑪⑩⑥
⑬口口⑫
口口口口 |⑥⑦⑧⑨|
⑨口口⑧ |⑩⑪⑫⑬|
82
⑦口口口 |①-②-③-|
口⑥⑤口 |④-⑤-⑥-|
口⑨④① |⑦---|
⑧③②⑩ |⑧-⑨-⑩-|
83
口⑦⑥⑪ |①-②-③-|
⑧⑤⑫③ |④-⑤-⑥-|
④口⑩② |⑦-⑧-⑨-|
口⑨①口 |⑩-⑪-⑫-|
84
⑥⑤⑤⑦ |①---|
口口口④ |②-③-④-|
③①口口 |⑤---⑥-|
⑥口②⑦ |--⑦---|
85
⑥口口⑦ |①---|
口⑤⑤口 |②-③-④-|
③①①④ |⑤---⑥-|
⑥口②⑦ |--⑦---|
86
口①①口 |①---|
口③③② |②---|
⑥⑦⑧⑨ |③-④⑤|
口④⑤口 |⑥⑦⑧⑨|
87
①口①③ |①---|
口口口口 |②---|
口口口口 |③---|
④口口② |④---|
88
口口口口 |①---|
①口口③ |②---|
④口④② |③---|
口口口口 |④---|
89
③①口① |①---|
口口口口 |②---|
口⑤口口 |③---|
②口口④ |④---⑤-|
90
口口①① |①---|
⑤口②⑧ |②-③-④-|
③⑨⑥口 |⑤-⑥-⑦-|
⑦口④⑩ |⑧-⑨-⑩-|
91
①⑧①口 |①---|
⑧④⑤口 |②-③-④-|
⑥口口③ |⑤-⑥-⑦-|
口②⑦口 |⑧---|
92
口口①① |①---|
口⑤⑥④ |②-③-④-|
⑦③⑧⑧ |⑤-⑥-⑦-|
口口口② |⑧---|
93
①①⑤⑤ |①---|
口口口口 |②-③-④-|
口⑥⑦⑧ |⑤---|
④③②口 |⑥-⑦-⑧-|
94
⑦⑦口口 |①---|
①①⑤⑤ |②-③-④-|
⑥⑥口口 |⑤---⑥-|
口④③② |--⑦---|
95
口口口① |①---|
口口口口 |②③④⑤|
口口口①
②③④⑤

口口口口
⑥⑦⑧⑨
⑩⑪⑫⑬ |⑥⑦⑧⑨|
口口口口 |⑩⑪⑫⑬|
96
①口口② |①---|
口口口口 |②---|
口口口口 |----|
口口口口 |----|

accuracy: 100%
最終更新:2023年10月23日 19:21