アットウィキロゴ
Mr.REAPER
ekaΩ feat.ロクナナハチ

BASIC

Level: 4
BPM: 196
Notes: 295

1
口口口口 |----|
口口口口 |----|
口口口口 |----|
口口口口 |----|
2
①①②② |①---|
口口口口 |----|
口口口口 |----|
口口口口 |--②-|
3
口口口口 |----|
口口口口 |----|
口口口口 |----|
口口口口 |----|
4
口口口口 |①---|
口②②口 |----|
口②②口 |----|
①①口口 |--②-|
5
①口口① |----|
口口口口 |----|
口口口口 |----|
口口口口 |--①-|
6
口口口口 |----|
③①口③ |①---|
口口②口 |②---|
口口口口 |--③-|
7
口口口口 |----|
口口口口 |①---|
③①口③ |②---|
口口②口 |--③-|
8
口口口口 |----|
口口口口 |①---|
口口②口 |②---|
口①口口 |----|
9
②口口② |①---|
口口口口 |----|
口①口口 |----|
口口口口 |--②-|
10
口口口口 |----|
③①口③ |①---|
口口②口 |②---|
口口口口 |--③-|
11
口口口口 |----|
口口口口 |①---|
③①口③ |②---|
口口②口 |--③-|
12
口口口口 |----|
口口口口 |①---|
口口②口 |②---|
口①口口 |----|
13
口①①口 |①---|
口口口口 |----|
口口口口 |----|
口口口口 |----|
14
口口口口 |①---|
口口口口 |②---|
①②③口 |③---|
口口口口 |----|
15
口口口口 |①---|
口③②① |②---|
口口口口 |③---|
口口口口 |----|
16
口口口口 |①---|
口口口口 |②---|
口口口口 |③---|
①②③口 |----|
17
口③②① |①---|
口口口口 |②---|
口口口口 |③---|
口口口口 |----|
18
口口口口 |①---|
口口口③ |②---|
口口口② |③---|
口口口① |----|
19
①口口口 |①---|
②口口口 |②---|
③口口口 |③---|
口口口口 |----|
20
口口①口 |①---|
口口②口 |②---|
口口③口 |③---|
口口口口 |----|
21
口口口口 |①---|
口③口口 |②---|
口②口口 |③---|
口①口口 |----|
22
口口口口 |①---|
口口口口 |②---|
①②③口 |③---|
口口口口 |----|
23
口口口口 |①---|
口③②① |②---|
口口口口 |③---|
口口口口 |----|
24
口口口口 |①---|
口口口口 |②---|
口口口口 |③---|
①②③口 |----|
25
口③②① |①---|
口口口口 |②---|
口口口口 |③---|
口口口口 |----|
26
口口口口 |①---|
口口口③ |②---|
口口口② |③---|
口口口① |----|
27
①口口口 |①---|
②口口口 |②---|
③口口口 |③---|
口口口口 |----|
28
口口口口 |①---|
口①①口 |----|
口②②口 |②---|
口口口口 |----|
29
口口口口 |①---|
口口口口 |----|
②口口口 |②---|
口①①口 |----|
30
口口②① |①---|
口口口口 |----|
口口口口 |②---|
口口口口 |----|
31
口口口口 |①---|
①②口口 |----|
口口口口 |②---|
口口口口 |----|
32
口口口口 |①---|
口口口口 |----|
口口②① |②---|
口口口口 |----|
33
口口口口 |①---|
口口口口 |----|
口口口口 |②---|
①②口口 |----|
34
①②口口 |①---|
口口口口 |----|
口口口口 |②---|
口口口口 |----|
35
口口口口 |①---|
口口②① |----|
口口口口 |②---|
口口口口 |----|
36
口口口口 |①---|
口口口口 |----|
①②口口 |②---|
口口口口 |----|
37
口口口口 |①---|
口口口口 |----|
口口口口 |②---|
口口②① |----|
38
口口②① |①---|
口口口口 |----|
口口口口 |②---|
口口口口 |----|
39
口口口口 |①---|
①②口口 |----|
口口口口 |②---|
口口口口 |----|
40
口口口口 |①---|
口口口口 |----|
口口②① |②---|
口口口口 |----|
41
口口口口 |①---|
口口口口 |----|
口口口口 |②---|
①②口口 |----|
42
口口口口 |①---|
口①①口 |----|
口口口口 |----|
口口口口 |----|
43
口口口口 |①---|
口口口口 |----|
口①①口 |----|
②口口② |--②-|
44
口口口口 |----|
②口口② |--①-|
①口口① |----|
口口口口 |--②-|
45
①口口① |----|
口口口口 |--①-|
口口口口 |----|
口口口口 |----|
46
口口口口 |①---|
口①①口 |----|
口①①口 |----|
口口口口 |----|
47
①①①① |----|
口口口口 |----|
口口口口 |----|
口口口口 |--①-|
48
口口口口 |----|
口口口口 |①---|
口③②口 |②---|
口①口口 |③---|
49
口口口④ |①---|
口口③口 |②---|
口口口② |③---|
口口①口 |④---|
50
①口口口 |①---|
口口口② |②---|
③口口口 |③---|
口口口④ |④---|
51
口④口口 |①---|
③口口口 |②---|
口②口口 |③---|
①口口口 |④---|
52
口口口① |①---|
口②口口 |②---|
口口③口 |③---|
④口口口 |④---|
53
口口口口 |①---|
口口②口 |②---|
口口口口 |----|
口口口① |----|
54
口口口口 |①---|
口口口口 |----|
①①口口 |----|
口口口口 |----|
55
③③③③ |①---|
口①①口 |--②-|
口口口口 |----|
口②②口 |--③-|
56
口口口口 |----|
口口口口 |①---|
口③②口 |②---|
口①口口 |③---|
57
口口口④ |①---|
口口③口 |②---|
口口口② |③---|
口口①口 |④---|
58
①口口口 |①---|
口口口② |②---|
③口口口 |③---|
口口口④ |④---|
59
口④口口 |①---|
③口口口 |②---|
口②口口 |③---|
①口口口 |④---|
60
口口口① |①---|
口②口口 |②---|
口口③口 |③---|
④口口口 |④---|
61
口口口口 |①---|
口口②口 |②---|
口口口口 |----|
口口口① |----|
62
口口口口 |①---|
②口口② |----|
①①口口 |----|
口口口口 |--②-|
63
口口口口 |----|
口口口口 |--①-|
口口口口 |----|
①口口① |----|
64
口口口口 |①---|
口口口口 |----|
口①①口 |----|
口口口口 |----|
65
口①口口 |①---|
口口口口 |----|
口②口② |----|
口口口口 |--②-|
66
口口口口 |----|
①②①② |--①-|
口口口口 |----|
口口口口 |--②-|
67
口口口口 |----|
口口口口 |--①-|
①口①口 |----|
口口口口 |----|
68
口口④口 |①---|
口口③口 |②---|
口②口口 |③---|
口①口口 |④---|
69
口口口① |①---|
口口口口 |----|
口口口口 |----|
口口口口 |----|
70
口④口口 |①---|
口③口口 |②---|
口口②口 |③---|
口口①口 |④---|
71
①口口口 |①---|
口口口口 |----|
口口口口 |----|
口口口口 |----|
72
口口口① |①---|
口口②口 |----|
口口口口 |②---|
口口口口 |----|
73
口口口口 |①---|
口口口口 |----|
口①口口 |②---|
②口口口 |----|
74
①口口口 |①---|
口②口口 |----|
口口口口 |②---|
口口口口 |----|
75
口口口口 |①---|
口口口口 |----|
口口①口 |②---|
口口口② |----|
76
口①口口 |①---|
口口②口 |----|
口口口口 |②---|
口口口口 |----|
77
口口口口 |①---|
口口口口 |----|
口①口口 |②---|
口口②口 |----|
78
口①①口 |①---|
口②②口 |--②-|
口③③口 |----|
口口口口 |③---|
79
口口口口 |--①-|
②口口② |----|
口口口口 |②---|
③①①③ |--③-|
80
口口口口 |----|
口①①口 |----|
口口口口 |----|
口口口口 |--①-|
81
口口口口 |----|
口口口口 |----|
口①①口 |----|
口口口口 |--①-|
82
口口口口 |----|
口口口口 |----|
口口口口 |----|
口口口口 |----|
83
口①①口 |①---|
口口口口 |----|
口口口口 |----|
口口口口 |----|
84
口口口① |①---|
口②口口 |②---|
口口③口 |③---|
④口口口 |④---|
85
口口口口 |①---|
口口②口 |②---|
口口口口 |----|
口口口① |----|
86
口口口口 |①---|
口口口口 |----|
①①口口 |----|
口口口口 |----|
87
③③③③ |①---|
口①①口 |--②-|
口口口口 |----|
口②②口 |--③-|
88
口口口口 |----|
口口口口 |①---|
口③②口 |②---|
口①口口 |③---|
89
口口口④ |①---|
口口③口 |②---|
口口口② |③---|
口口①口 |④---|
90
①口口口 |①---|
口口口② |②---|
③口口口 |③---|
口口口④ |④---|
91
口④口口 |①---|
③口口口 |②---|
口②口口 |③---|
①口口口 |④---|
92
口口口① |①---|
口②口口 |②---|
口口③口 |③---|
④口口口 |④---|
93
口口口口 |①---|
口口②口 |②---|
口口口口 |----|
口口口① |----|
94
口口口口 |①---|
②口口② |----|
①①口口 |----|
口口口口 |--②-|
95
口②②口 |----|
口口口口 |--①-|
口口口口 |----|
①口口① |--②-|
96
口口口口 |----|
①口口① |----|
口口口口 |----|
口口口口 |--①-|
97
口口口口 |----|
口口口口 |①---|
③①口③ |②---|
口口②口 |--③-|
98
口口口口 |----|
口③口口 |①---|
口口②口 |②---|
口①口口 |③---|
99
口口①口 |①---|
口口口口 |--②-|
②口口口 |----|
口口口口 |----|

accuracy: 100%
最終更新:2023年10月17日 19:13