アットウィキロゴ
Mr.REAPER
ekaΩ feat.ロクナナハチ

ADVANCED

Level: 8
BPM: 196
Notes: 539

1
口口口口 |----|
口口口口 |----|
口口口口 |----|
口口口口 |----|
2
口④④① |①---|
口口②口 |②---|
口③口口 |③---|
口口口口 |--④-|
3
口口口口 |----|
口②②口 |①-②-|
口口口口 |----|
③口①口 |③---|
4
②口口口 |①---|
口③口口 |②---|
口①①口 |③---|
口口④④ |--④-|
5
③③②② |--①-|
口口口口 |--②-|
口④④口 |--③-|
①①口口 |--④-|
6
口口口口 |--①-|
口⑥⑥① |②-③-|
口口口口 |④-⑤-|
②③④⑤ |--⑥-|
7
①⑥⑥口 |--①-|
口口口口 |②-③-|
⑤④③② |④-⑤-|
口口口口 |--⑥-|
8
口口口① |--①-|
②③④⑤ |②-③-|
口口口口 |④-⑤-|
口⑥口口 |⑥---|
9
④①①口 |①---|
口口口口 |②-③-|
③⑤⑤② |----|
③口口② |④-⑤-|
10
口口口口 |--①-|
口⑥⑥① |②-③-|
口口口口 |④-⑤-|
②③④⑤ |--⑥-|
11
①⑥⑥口 |--①-|
口口口口 |②-③-|
⑤④③② |④-⑤-|
口口口口 |--⑥-|
12
口口口① |--①-|
②③④⑤ |②-③-|
口口口口 |④-⑤-|
口⑥口口 |⑥---|
13
②口口③ |①---|
口口口口 |----|
口①①口 |②---|
口口口口 |③---|
14
口②口口 |①---|
口口③口 |②-③-|
口口口口
口①①口

口口口口
口口口口
④口口口 |④-⑤-|
口⑥口⑤ |--⑥-|
15
口⑦⑥⑤ |①-②-|
口④③口 |③-④-|
口②①口 |--⑤-|
口口口口 |⑥-⑦-|
16
口⑤口口 |----|
口口口口 |①-②-|
②口口① |③-④-|
④口口③ |--⑤-|
17
口口①口 |①-②-|
口②口口 |③-④-|
口口③口
口④口口

⑤⑥⑦口
口口口口
口口口口 |--⑤-|
口口口口 |⑥-⑦-|
18
口口⑤口 |----|
口口口口 |①-②-|
④口口③ |③-④-|
②口口① |--⑤-|
19
口①口口 |①-②-|
口口②口 |③-④-|
口③口口
口口④口

口⑦⑥⑤
口口口口
口口口口 |--⑤-|
口口口口 |⑥-⑦-|
20
⑤口口口 |----|
口口口口 |①-②-|
①②③④ |③-④-|
口口口口 |--⑤-|
21
口口①口 |①-②-|
口②口③ |③-④-|
口⑤⑤口 |--⑤-|
口④④口 |----|
22
口①口口 |----|
口口②口 |①-②-|
③口口口 |③-④-|
口⑤口④ |--⑤-|
23
口⑦⑥⑤ |①-②-|
口④③口 |③-④-|
口②①口 |--⑤-|
口口口口 |⑥-⑦-|
24
口⑥口口 |----|
口口⑤口 |①-②-|
②口口① |③-④-|
④口口③ |⑤-⑥-|
25
⑤口①⑥ |①-②-|
⑤②口⑥ |③-④-|
口口③口 |--⑤-|
口④口口 |--⑥-|
26
口口⑤口 |----|
口口口口 |①-②-|
④口口③ |③-④-|
②口口① |--⑤-|
27
口①口口 |①-②-|
口口②口 |③-④-|
口③口口
口口④口

口⑦⑥⑤
口口口口
口口口口 |--⑤-|
口口口口 |⑥-⑦-|
28
口口口口 |----|
②口口① |①---|
②④③① |②--③|
④口口③ |--④-|
29
口口口口 |----|
口口口② |----|
口口口口 |①---|
口口①口 |②---|
30
①②③④ |①-②-|
口口口口 |③-④-|
⑤口口口 |⑤---|
口口⑥口 |--⑥-|
31
口口口口 |--①-|
口口口① |②-③-|
口②③④ |④---|
口口口口 |----|
32
口口口⑥ |①-②-|
④③②① |③-④-|
口口口口 |⑤---|
口⑦⑤口 |⑥-⑦-|
33
口口口口 |--①-|
口口⑤⑤ |②-③-|
③②①口 |④---|
口口④④ |⑤---|
34
①②③④ |①-②-|
口口口口 |③-④-|
⑤口口口 |⑤---|
口口⑥口 |--⑥-|
35
口口口口 |--①-|
口口口① |②-③-|
口②③④ |④---|
口口口口 |----|
36
①⑦口口 |①-②-|
⑦⑤②口 |③-④-|
口③口⑥ |⑤---|
口口口④ |⑥-⑦-|
37
口口①口 |--①-|
口口口① |--②-|
口②③口 |--③-|
②口口③ |----|
38
①②③④ |①-②-|
口口口口 |③-④-|
⑤口口口 |⑤---|
口口⑥口 |--⑥-|
39
口口口口 |--①-|
口口口① |②-③-|
口②③④ |④---|
口口口口 |----|
40
口口口⑥ |①-②-|
④③②① |③-④-|
口口口口 |⑤---|
口⑦⑤口 |⑥-⑦-|
41
口口口口 |--①-|
口口⑤⑤ |②-③-|
③②①口 |④---|
口口④④ |⑤---|
42
①①口口 |①---|
口口口口 |----|
口口口口 |----|
③③②② |②-③-|
43
口①口① |----|
口口口口 |----|
口口口口 |----|
口口口口 |--①-|
44
口口口口 |----|
①口①口 |--①-|
口②口② |----|
口口口口 |--②-|
45
口口口口 |----|
口口②口 |--①-|
口③口口 |--②-|
①口①口 |③---|
46
口①口① |①---|
口口口口 |----|
口口口口 |----|
口口口口 |----|
47
①①口口 |----|
口口口口 |----|
口口口口 |----|
口口口口 |--①-|
48
口口③③ |----|
口口口口 |①---|
口④口口 |②---|
②②①① |③-④-|
49
④④③口 |----|
口①口口 |①-②-|
口口②口 |--③-|
口口口口 |--④-|
50
口口口口 |--①-|
口⑥⑦① |②-③-|
口④⑤口 |④-⑤-|
口②③口 |⑥-⑦-|
51
⑥⑥口口 |①-②-|
③口口④ |③-④-|
①口口② |--⑤-|
口口⑤口 |--⑥-|
52
⑥口口⑦ |--①-|
口④⑤口 |②-③-|
口②③① |④-⑤-|
口口口口 |⑥-⑦-|
53
口口口口 |--①-|
口⑥⑤④ |②-③-|
口①口口 |--④-|
口③②口 |⑤-⑥-|
54
口口口口 |--①-|
口口口口 |②---|
口口口口 |----|
②口口① |----|
55
④④口口 |①---|
口①①口 |--②-|
口③③口 |--③-|
口②②口 |--④-|
56
口口③③ |----|
口口口口 |①---|
口④口口 |②---|
②②①① |③-④-|
57
⑤⑤④口 |--①-|
口②①口 |②-③-|
口口③口 |--④-|
口口口口 |--⑤-|
58
口口口口 |--①-|
口⑥⑦① |②-③-|
口④⑤口 |④-⑤-|
口②③口 |⑥-⑦-|
59
⑥⑥口口 |①-②-|
③口口④ |③-④-|
①口口② |--⑤-|
口口⑤口 |--⑥-|
60
口口口口 |--①-|
④口口⑤ |②-③-|
②⑥⑦③ |④-⑤-|
口口口① |⑥-⑦-|
61
口③②① |--①-|
口⑤④口 |②-③-|
口口口口 |--④-|
口④⑤口 |--⑤-|
62
口②②口 |----|
口口口口 |----|
口口口口 |----|
①口口口 |①-②-|
63
口口口口 |--①-|
口①①口 |--②-|
口②②④ |--③-|
口③③口 |④---|
64
①口①口 |①---|
口口口口 |----|
口口口口 |----|
口口口口 |----|
65
口口①① |----|
口口口口 |----|
口口口口 |----|
口口口口 |--①-|
66
③③口口 |--①-|
口口⑥⑥ |②-③-|
口①②口 |--④-|
口⑤④口 |⑤-⑥-|
67
口口口口 |--①-|
③③口口 |②-③-|
口口口口 |----|
①口口② |----|
68
④③②① |①-②-|
口⑥⑤口 |③-④-|
口口口口 |⑤-⑥-|
口口⑦⑦ |--⑦-|
69
①口口口 |----|
口口口口 |----|
口口口口 |----|
口口口口 |--①-|
70
口口口③ |--①-|
口④⑤口 |②-③-|
口②①口 |--④-|
⑥口口口 |⑤-⑥-|
71
口口口口 |----|
口口口口 |----|
口①①口 |①---|
口口口口 |----|
72
口④③② |①---|
口口口口 |----|
口口口口 |②---③-|
口口口① |--④---|
73
②口口口 |①---|
口口口口 |----|
口口口① |②---|
口口口口 |----|
74
口口口口 |①-②-|
口③④口 |----|
口口口口 |③-④-|
口①②口 |----|
75
①口口口 |①---|
口口口口 |----|
口口口口 |②-③-|
⑤④③② |④-⑤-|
76
口口口① |①---|
口口口口 |----|
口②口口 |②---|
口口口口 |----|
77
①③口口 |①---|
口口④口 |--②-|
口⑤②口 |③-④-|
口口⑥口 |⑤-⑥-|
78
③口口② |①---|
口口口口 |--②-|
口口口口 |----|
①口口口 |③---|
79
③③口口 |--①-|
口口口口 |----|
口②②口 |②---|
口口口① |--③-|
80
口口①① |----|
口口口口 |----|
口口口口 |----|
口口口口 |--①-|
81
口口口口 |----|
口口口口 |----|
口口口口 |----|
①①口口 |--①-|
82
口口口口 |----|
口口口口 |----|
口口口口 |----|
口口口口 |----|
83
③口口口 |①---|
口口口口 |--②-|
口②②口 |----|
口口①① |--③-|
84
④口口⑤ |----|
口②③口 |①---|
口①①口 |②-③-|
口口口口 |④-⑤-|
85
口口口口 |--①-|
口⑥⑤④ |②-③-|
口①口口 |--④-|
口③②口 |⑤-⑥-|
86
口口口口 |--①-|
口口口口 |②---|
口口口口 |----|
②口口① |----|
87
④④口口 |①---|
口①①口 |--②-|
口③③口 |--③-|
口②②口 |--④-|
88
口口③③ |----|
口口口口 |①---|
口④口口 |②---|
②②①① |③-④-|
89
⑤⑤④口 |--①-|
口②①口 |②-③-|
口口③口 |--④-|
口口口口 |--⑤-|
90
口口口口 |--①-|
口⑥⑦① |②-③-|
口④⑤口 |④-⑤-|
口②③口 |⑥-⑦-|
91
⑥⑥口口 |①-②-|
③口口④ |③-④-|
①口口② |--⑤-|
口口⑤口 |--⑥-|
92
口口口口 |--①-|
④口口⑤ |②-③-|
②⑥⑦③ |④-⑤-|
口口口① |⑥-⑦-|
93
口③②① |--①-|
口⑤④口 |②-③-|
口口口口 |--④-|
口④⑤口 |--⑤-|
94
口口口口 |--①-|
口口口口 |②---|
①口口② |----|
③④④口 |③-④-|
95
③①①③ |--①-|
口④④口 |--②-|
口②②口 |--③-|
口口口口 |--④-|
96
口口口口 |--①-|
口⑥⑥① |②-③-|
口口口口 |④-⑤-|
②③④⑤ |--⑥-|
97
①⑥⑥口 |--①-|
口口口口 |②-③-|
⑤④③② |④-⑤-|
口口口口 |--⑥-|
98
口口口① |--①-|
②③④⑤ |②-③-|
口口口口 |④-⑤-|
口⑥口口 |⑥---|
99
口①①口 |①---|
口口口口 |--②-|
口②②口 |----|
口口口口 |----|

accuracy: 100%
最終更新:2023年10月17日 19:24