アットウィキロゴ
Mr.REAPER
ekaΩ feat.ロクナナハチ

EXTREME

Level: 9.1
BPM: 196
Notes: 765

1
口口口口 |----|
口口口口 |----|
口口口口 |----|
口口口口 |----|
2
口①口① |①---|
口④③口 |--②-|
口⑤口⑤ |③-④-|
口②口口 |--⑤-|
3
口①口① |----|
口②口口 |--①-|
口口③口 |--②-|
口④口口 |③-④-|
4
③口口② |①---|
①口①口 |②-③-|
口口口口
口口口口

口⑤④口
口口⑥⑥
口⑥口口 |④-⑤-|
口口口口 |--⑥-|
5
③③②② |--①-|
①①④④ |--②-|
口口①口 |--③-|
②口口③ |--④-|
6
口口口④ |--①-|
⑥⑥口口 |②-③-|
口①⑤口 |④-⑤-|
口③②口 |--⑥-|
7
④口⑥⑥ |--①-|
口口口口 |②-③-|
口⑤口① |④-⑤-|
②口口③ |--⑥-|
8
⑥口口口 |--①-|
口①⑦④ |②-③-|
口口⑤口 |④-⑤-|
口③②口 |⑥-⑦-|
9
⑤②③口 |①---|
口口⑥⑥ |②-③-|
①①口口 |--④-|
口口口④ |⑤-⑥-|
10
口口口④ |--①-|
⑥⑥口口 |②-③-|
口①⑤口 |④-⑤-|
口③②口 |--⑥-|
11
④口⑥⑥ |--①-|
口口口口 |②-③-|
口⑤口① |④-⑤-|
②口口③ |--⑥-|
12
口口⑥口 |--①-|
⑤①口④ |②-③-|
口口口口 |④-⑤-|
口③②口 |⑥---|
13
②口口③ |①---|
口口口口 |----|
口①①口 |②---|
口口口口 |③---|
14
口⑥⑤口 |①---|
⑦④口② |②-③-|
口口③口 |④-⑤-|
①①口口 |⑥-⑦-|
15
⑤口口口 |①-②-|
口⑥口口 |③-④-|
①口⑦④ |--⑤-|
口②③口 |⑥-⑦-|
16
⑥口口① |①---|
口口口口 |②-③-|
口③口⑤ |④-⑤-|
②口④⑦ |⑥-⑦-|
17
口口③口 |①-②-|
口④⑤② |③-④-|
口⑥①口 |--⑤-|
⑦口口口 |⑥-⑦-|
18
②口③口 |①---|
口④口口 |②-③-|
口口⑤口 |④-⑤-|
⑥口⑦① |⑥-⑦-|
19
④口口③ |①-②-|
口⑦②口 |③-④-|
口口⑥① |--⑤-|
口口口⑤ |⑥-⑦-|
20
②口③口 |①---|
口口口① |②-③-|
口口口口
口口口口

口口口⑦
口口⑤⑦
口④口口 |④-⑤-|
⑥口口口 |⑥-⑦-|
21
口⑤口口 |①-②-|
⑤③口口 |③-④-|
口口②④ |--⑤-|
口①④口 |----|
22
②口口口 |①---|
口③口⑥ |②-③-|
④⑦口口 |④-⑤-|
口⑤口① |⑥-⑦-|
23
口②③口 |①-②-|
④口①口 |③-④-|
口口⑤⑥ |--⑤-|
口⑦口口 |⑥-⑦-|
24
②⑤口⑦ |①---|
④③口口 |②-③-|
口口口⑥ |④-⑤-|
口口口① |⑥-⑦-|
25
⑤⑦口口 |①-②-|
⑦⑤①口 |③-④-|
④②口⑥ |--⑤-|
口④口③ |⑥-⑦-|
26
口口口② |①---|
口⑤口口 |②-③-|
口⑦④口 |④-⑤-|
③口①⑥ |⑥-⑦-|
27
③②①口 |①-②-|
⑤口口口 |③-④-|
口口④⑥ |--⑤-|
⑦口口口 |⑥-⑦-|
28
口②②② |①---|
③③③口 |②---|
口④④④ |③--④|
⑤⑤⑤① |--⑤-|
29
②口③① |--①-|
口口⑤口 |②-③-|
口口口口 |④---|
口口口④ |⑤---|
30
口口⑧⑧ |①-②-|
口⑤口口 |③-④-|
①⑦⑥④ |⑤-⑥-|
口②③口 |⑦-⑧-|
31
口②口口 |--①-|
①口③口 |②-③-|
口口口④ |④-⑤-|
⑤⑥⑦口 |⑥-⑦-|
32
口口⑥口 |①-②-|
口②口④ |③-④-|
①⑦③口 |⑤-⑥-|
⑤口⑧口 |⑦-⑧-|
33
口②④④ |--①-|
①口③口 |②-③-|
口口口口 |④---|
⑤⑤口口 |⑤---|
34
①口口⑥ |①-②-|
⑤②口口 |③-④-|
⑤口③⑦ |⑤-⑥-|
口⑧⑧④ |⑦-⑧-|
35
口口口④ |--①-|
口口③⑦ |②-③-|
口②口⑥ |④-⑤-|
①口口⑤ |⑥-⑦-|
36
①口②口 |①-②-|
③口④⑦ |③-④-|
⑤口⑥口 |⑤---|
口⑦口口 |⑥-⑦-|
37
口口口③ |--①-|
口①②口 |--②-|
口口口口 |--③-|
③口②① |----|
38
口口⑧⑧ |①-②-|
口⑤口口 |③-④-|
①⑦⑥④ |⑤-⑥-|
口②③口 |⑦-⑧-|
39
口②口口 |--①-|
①口③口 |②-③-|
口口口④ |④-⑤-|
⑤⑥⑦口 |⑥-⑦-|
40
口口⑥口 |①-②-|
口②口④ |③-④-|
①⑦③口 |⑤-⑥-|
⑤口⑧口 |⑦-⑧-|
41
口②④④ |--①-|
①口③口 |②-③-|
口口口口 |④---|
⑤⑤口口 |⑤---|
42
口④⑤口 |①---|
口③口① |②---|
④②口⑤ |③---|
口口①口 |④-⑤-|
43
⑤口④口 |①---|
口③口口 |②---|
⑤口②口 |③---|
口①口口 |④-⑤-|
44
口口口② |--①-|
④口①口 |--②-|
口③口② |--③-|
④口口口 |--④-|
45
口口口口 |--①-|
口口④② |--②-|
口③①口 |--③-|
口口口② |④---|
46
①口口① |①---|
口口口口 |----|
①口口① |----|
口口口口 |----|
47
④口③① |----|
口④口口 |----|
④口口② |①-②-|
口口口口 |③-④-|
48
口⑤⑦⑥ |--①-|
④口⑥② |②-③-|
口④②⑥ |④-⑤-|
④①③② |⑥-⑦-|
49
③口⑤⑤ |--①-|
口②④口 |②-③-|
口口③口 |--④-|
④①口口 |--⑤-|
50
⑤⑧口口 |--①②|
口口⑥④ |③-④-|
⑦口口口 |⑤-⑥-|
口③②① |⑦-⑧-|
51
口⑥口⑥ |①-②-|
①口口口 |③-④-|
口②⑤④ |--⑤-|
③口④⑤ |--⑥-|
52
⑥口⑥口 |--①-|
口⑤②口 |②-③-|
口③口口 |④-⑤-|
①⑦④⑦ |⑥-⑦-|
53
口口④① |--①-|
口口口⑤ |②-③-|
④口②⑥ |--④-|
③⑤⑥口 |⑤-⑥-|
54
口④口⑤ |--①-|
口①口口 |②---|
③③口口 |③-④-|
⑥口口② |⑤-⑥-|
55
口⑤口⑥ |①-②-|
④④⑥① |③-④-|
⑤口②⑥ |--⑤-|
口③口口 |--⑥-|
56
⑥⑦⑤口 |--①-|
②⑥口④ |②-③-|
⑥②④口 |④-⑤-|
②③①④ |⑥-⑦-|
57
⑤⑤口③ |--①-|
口④②口 |②-③-|
口③口口 |--④-|
口口①④ |--⑤-|
58
口口⑧⑤ |--①②|
④⑥口口 |③-④-|
口口口⑦ |⑤-⑥-|
①②③口 |⑦-⑧-|
59
⑥口⑥口 |①-②-|
口口口① |③-④-|
④⑤②口 |--⑤-|
⑤④口③ |--⑥-|
60
口⑥口⑥ |--①-|
口②⑤口 |②-③-|
口口③口 |④-⑤-|
⑦④⑦① |⑥-⑦-|
61
①口口口 |--①-|
④口口⑤ |②-③-|
④②口⑤ |--④-|
口⑥⑥③ |⑤-⑥-|
62
口④口口 |----|
口②②口 |①---|
口口口④ |②---|
③口口① |③-④-|
63
口口①口 |--①-|
口②③口 |--②-|
①④口口 |--③-|
③口口② |④---|
64
②③④⑤ |①---|
口口口口 |②-③-|
口⑥⑦口 |④-⑤-|
口①①口 |⑥-⑦-|
65
口④⑤口 |--①-|
①口口⑤ |②-③-|
口口口② |--④-|
③口口口 |--⑤-|
66
口口口口 |--①-|
口③④口 |②-③-|
③①⑥口 |--④-|
口⑤②⑥ |⑤-⑥-|
67
口①②口 |--①-|
⑥口口④ |②-③-|
口③口口 |--④-|
③口⑤口 |⑤-⑥-|
68
口②⑦① |①-②-|
口⑥口⑦ |③-④-|
口口⑤口 |⑤-⑥-|
口④口③ |--⑦-|
69
口口口④ |--①-|
⑤口②口 |②-③-|
⑦③口⑥ |④-⑤-|
①⑦口口 |⑥-⑦-|
70
口⑥③口 |--①-|
⑥④①③ |②-③-|
口②⑤口 |--④-|
口口口口 |⑤-⑥-|
71
⑤口口⑥ |--①-|
口④④口 |②-③-|
口口口口 |④---|
口③②① |⑤-⑥-|
72
口③口口 |①---|
①⑥口口 |②-③-|
①口⑤口 |④---⑤-|
①口②④ |--⑥---|
73
③口①① |①---|
口⑤口① |②---|
口口④口 |③---|
②口口口 |④-⑤-|
74
⑤⑤口口 |①-②-|
口口②② |--③-|
⑥④口口 |④-⑤-|
口口①③ |--⑥-|
75
口⑤⑤① |①---|
④④口① |----|
口③③① |②-③-|
②②口口 |④-⑤-|
76
口口口口 |①---|
口口口口 |----|
口口口①
口口①①

③口口口
口③④口
口口口④ |②-③-|
②口口口 |--④-|
77
口②②口 |----|
③③口口 |--①-|
口④④口 |②-③-|
⑤⑤口① |④-⑤-|
78
②口③口 |①---|
口口口③ |--②-|
②口口① |----|
口口①口 |③---|
79
口③口口 |--①-|
③口②口 |----|
口②口③ |②---|
①①③口 |--③-|
80
口口②口 |----|
口口口② |----|
②口①口 |----|
口②口口 |①-②-|
81
④①口口 |----|
④口②口 |----|
口③口④ |①-②-|
口口口④ |③-④-|
82
口口口口 |----|
口口②口 |----|
口①口口 |----|
口口口口 |①-②-|
83
③②口① |①---|
②③口① |--②-|
①口③② |--③-|
①④②③ |--④-|
84
⑤口⑤① |----|
①④口① |①-②-|
①②口① |③-④-|
①⑥③⑥ |⑤-⑥-|
85
口口④① |--①-|
口口口⑤ |②-③-|
④口②⑥ |--④-|
③⑤⑥口 |⑤-⑥-|
86
口④口⑤ |--①-|
口①口口 |②---|
③③口口 |③-④-|
⑥口口② |⑤-⑥-|
87
口⑤口⑥ |①-②-|
④④⑥① |③-④-|
⑤口②⑥ |--⑤-|
口③口口 |--⑥-|
88
⑥⑦⑤口 |--①-|
②⑥口④ |②-③-|
⑥②④口 |④-⑤-|
②③①④ |⑥-⑦-|
89
⑤⑤口③ |--①-|
口④②口 |②-③-|
口③口口 |--④-|
口口①④ |--⑤-|
90
口口⑧⑤ |--①②|
④⑥口口 |③-④-|
口口口⑦ |⑤-⑥-|
①②③口 |⑦-⑧-|
91
⑥口⑥口 |①-②-|
口口口① |③-④-|
④⑤②口 |--⑤-|
⑤④口③ |--⑥-|
92
口⑥口⑥ |--①-|
口②⑤口 |②-③-|
口口③口 |④-⑤-|
⑦④⑦① |⑥-⑦-|
93
①口④口 |--①-|
口口口④ |②-③-|
⑤②口口 |--④-|
口⑤口③ |--⑤-|
94
⑤口⑤口 |--①-|
口③①⑤ |②---|
口②④口 |③---|
口口口口 |④-⑤-|
95
口③口② |--①-|
③口④④ |--②-|
②①口② |--③-|
①口①③ |--④-|
96
口口口④ |--①-|
⑥⑥口口 |②-③-|
口①⑤口 |④-⑤-|
口③②口 |--⑥-|
97
④口⑥⑥ |--①-|
口口口口 |②-③-|
口⑤口① |④-⑤-|
②口口③ |--⑥-|
98
⑥口口口 |--①-|
口①口④ |②-③-|
口口⑤口 |④-⑤-|
口③②口 |⑥---|
99
口口口口 |①---|
②口口② |--②-|
①①口口 |----|
②口口② |----|

accuracy: 100%
最終更新:2023年10月17日 20:12