アットウィキロゴ
Cranberry
BEMANI Sound Team "肥塚良彦"

BASIC

Level: 5
BPM: 180
Notes: 301

1
口口口口 |----|
口口口口 |----|
口口口口 |----|
口口口口 |----|
2
口口口口 |①---|
口口口口 |----|
口口②口 |②---|
口①口口 |----|
3
①口口① |①---|
口口口口 |----|
口口口口 |----|
口口口口 |----|
4
口口口口 |①---|
口口口口 |----|
口②口口 |②---|
口口①口 |----|
5
①口口① |①---|
口口口口 |----|
口口口口 |----|
口口口口 |----|
6
口口口口 |①---|
口口口口 |----|
口口②口 |②---|
口①口口 |----|
7
①口口① |①---|
口口口口 |----|
口口口口 |----|
口口口口 |----|
8
口口口口 |①---|
口口口口 |----|
口②②口 |②---|
口①①口 |----|
9
②口口② |①---|
②①①② |②---|
口口口口 |----|
口口口口 |----|
10
口口口口 |----|
口口口口 |----|
口口口口 |----|
口口口口 |----|
11
口④口口 |①---|
口③口口 |②---|
口②口口 |③---|
口①口口 |④---|
12
口口口口 |----|
口口口① |①---|
②口口口 |②---|
口口口③ |③---|
13
口口④口 |①---|
口口③口 |②---|
口口②口 |③---|
口口①口 |④---|
14
口口口口 |----|
①口口口 |①---|
口口口② |②---|
③口口口 |③---|
15
口④④口 |①---|
口③口口 |②---|
口口②口 |③---|
口①口口 |④---|
16
口口口口 |----|
口口口① |①---|
②口口口 |②---|
口口③口 |③---|
17
③口口③ |①---|
口①口口 |②---|
口口②口 |----|
口口口口 |③---|
18
口口口③ |----|
②口口口 |①---|
口口口口 |②---|
口①口口 |③---|
19
口口④口 |①---|
口口③口 |②---|
口口②口 |③---|
口口①口 |④---|
20
口口口口 |----|
①口口口 |①---|
口口口② |②---|
③口口口 |③---|
21
口④口口 |①---|
口③口口 |②---|
口②口口 |③---|
口①口口 |④---|
22
口口口口 |----|
口口口① |①---|
②口口口 |②---|
口口口③ |③---|
23
口④④口 |①---|
口口③口 |②---|
口②口口 |③---|
口口①口 |④---|
24
口口口② |----|
口口口口 |①---|
①口③口 |②---|
口口口口 |③---|
25
①口口口 |①---|
口口口② |②---|
③口口口 |③---|
口口口④ |④---|
26
口口④口 |①---|
口③口口 |②---|
口口②口 |③---|
口①口口 |④---|
27
口④口口 |①---|
口③口口 |②---|
口②口口 |③---|
口①口口 |④---|
28
口口①口 |①---|
口口②口 |②---|
口口③口 |③---|
口口④口 |④---|
29
④口口口 |①---|
③口口口 |②---|
②口口口 |③---|
①口口口 |④---|
30
口①②③ |①---|
口口口口 |②---|
口口口口 |③---|
口口口口 |----|
31
口口口口 |①---|
口①口口 |----|
口口口② |②---|
口口口口 |----|
32
口①口口 |①---|
口口②口 |②---|
口③口口 |③---|
口口口口 |----|
33
口口口口 |①---|
②口口口 |----|
口口口口 |②---|
口口口① |----|
34
口②②口 |①---|
口口口口 |----|
口口①口 |②---|
口口口口 |----|
35
口口口口 |①---|
口①口口 |----|
口口口② |②---|
口口口口 |----|
36
口①口口 |①---|
口口②口 |②---|
口③口口 |③---|
口口口口 |----|
37
口口口口 |①---|
①口口① |----|
口口口口 |----|
口口口口 |----|
38
口口口口 |①---|
口口口口 |----|
口口口口 |②---|
②口口① |----|
39
口口口口 |①---|
口口①口 |----|
②口口口 |②---|
口口口口 |----|
40
口口①口 |①---|
口②口口 |②---|
口口③口 |③---|
口口口口 |----|
41
口口口口 |①---|
口口口② |----|
口口口口 |②---|
①口口口 |----|
42
口②②口 |①---|
口口口口 |----|
口①口口 |②---|
口口口口 |----|
43
口口口口 |①---|
口口①口 |----|
②口口口 |②---|
口口口口 |----|
44
口口①口 |①---|
口②口口 |②---|
口口③口 |③---|
口④口口 |④---|
45
口④口口 |①---|
口口③口 |②---|
口②口口 |③---|
口口①口 |④---|
46
口口口口 |----|
口②口口 |----|
口口口口 |①---|
口口口① |②---|
47
口③②① |①-②-|
口口口口 |③---|
口口口口 |----|
口口口口 |----|
48
口口口口 |①---|
口口③口 |----|
口①①口 |②---|
②口口口 |③---|
49
①②③口 |①-②-|
口口口口 |③---|
口口口口 |----|
口口口口 |----|
50
口口口口 |①---|
口口口口 |----|
①口口① |②---|
口②②口 |----|
51
口③②① |①-②-|
口口口口 |③---|
口④④口 |----|
口口口口 |④---|
52
口口口口 |①---|
①口口③ |②---|
口口口口 |③---|
②口口④ |④---|
53
口口口口 |①---|
口口口口 |----|
口②②口 |②---|
口①①口 |----|
54
口②②口 |①---|
口①①口 |----|
口口口口 |②---|
口口口口 |----|
55
①口口口 |①---|
口口口② |②---|
口③口口 |③---|
口口④口 |④---|
56
口口口口 |①---|
③口口③ |--②-|
②口口② |----|
①口口① |③---|
57
①口③① |--①-|
口口口口 |----|
口②口口 |②---|
口口口口 |③---|
58
口①口口 |①---|
口口②口 |②---|
口③口口 |③---|
口口④口 |④---|
59
口口口口 |----|
口口口口 |----|
口口口口 |----|
口口口口 |----|
60
口④口口 |①---|
口③口口 |②---|
口②口口 |③---|
口①口口 |④---|
61
口口口口 |----|
口口口① |①---|
②口口口 |②---|
口口口③ |③---|
62
口口④口 |①---|
口口③口 |②---|
口口②口 |③---|
口口①口 |④---|
63
口口口口 |----|
①口口口 |①---|
口口口② |②---|
③口口口 |③---|
64
口④④口 |①---|
口③口口 |②---|
口口②口 |③---|
口①口口 |④---|
65
口口口口 |----|
口口口① |①---|
②口口口 |②---|
口口③口 |③---|
66
③口口③ |①---|
口①口口 |②---|
口口②口 |----|
口口口口 |③---|
67
口口口③ |----|
②口口口 |①---|
口口口口 |②---|
口①口口 |③---|
68
口口④口 |①---|
口口③口 |②---|
口口②口 |③---|
口口①口 |④---|
69
口口口口 |----|
①口口口 |①---|
口口口② |②---|
③口口口 |③---|
70
口④口口 |①---|
口③口口 |②---|
口②口口 |③---|
口①口口 |④---|
71
口口口口 |----|
口口口① |①---|
②口口口 |②---|
口口口③ |③---|
72
口④④口 |①---|
口口③口 |②---|
口②口口 |③---|
口口①口 |④---|
73
口口口② |----|
口口口口 |①---|
①口③口 |②---|
口口口口 |③---|
74
①口口口 |①---|
口口口② |②---|
③口口口 |③---|
口口口④ |④---|
75
口口④口 |①---|
口③口口 |②---|
口口②口 |③---|
口①口口 |④---|
76
①口口口 |①--②|
②⑤⑤口 |--③-|
③口口口 |-④--|
④口口口 |--⑤-|
77
口③口口 |----|
口口口口 |①---|
口口②口 |②---|
口①口口 |③---|
78
口口口① |①--②|
口⑤⑤② |--③-|
口口口③ |-④--|
口口口④ |--⑤-|
79
口口①口 |----|
口口口口 |①---|
口②口口 |②---|
口口③口 |③---|
80
口①口口 |①--②|
口②口⑤ |--③-|
口③口⑤ |-④--|
口④口口 |--⑤-|
81
③口口口 |----|
口口口口 |①---|
口口②口 |②---|
①口口口 |③---|
82
口口①口 |①--②|
⑤口②口 |--③-|
⑤口③口 |-④--|
口口④口 |--⑤-|
83
口口口③ |----|
口②口口 |①---|
口口口口 |②---|
口口口① |③---|
84
口④口口 |①---|
口③口口 |②---|
口②口口 |③---|
口①口口 |④---|
85
口口①口 |①---|
口口②口 |②---|
口口③口 |③---|
口口④口 |④---|
86
口④口口 |①---|
口③口口 |②---|
口②口口 |③---|
口①口口 |④---|
87
④口口④ |①---|
③口口③ |②---|
②口口② |③---|
①口口① |④---|

accuracy: 100%
最終更新:2023年07月20日 01:26