アットウィキロゴ
Cranberry
BEMANI Sound Team "肥塚良彦"

ADVANCED

Level: 7
BPM: 180
Notes: 520

1
口口口口 |----|
口口口口 |----|
口口口口 |----|
口口口口 |----|
2
口口口口 |①---|
③④口① |②---|
口⑤⑤口 |③-④-|
口②口口 |--⑤-|
3
口口口③ |----|
口口②口 |①---|
口口口① |②---|
口口口口 |③---|
4
口口口口 |①---|
①口④③ |②---|
口⑤⑤口 |③-④-|
口口②口 |--⑤-|
5
①口口口 |----|
口②口口 |①---|
③口口口 |②---|
口口口口 |③---|
6
口口口口 |①---|
③④口① |②---|
口⑤⑤口 |③-④-|
口②口口 |--⑤-|
7
口口口口 |----|
口口③口 |①---|
口口口② |②---|
口口①口 |③---|
8
①口口① |①---|
口口口口 |----|
②口口② |②---|
口口口口 |----|
9
②口口② |①---|
口②②口 |②---|
口口口口 |----|
口①①口 |----|
10
口口口口 |----|
口口口口 |----|
口口口口 |----|
口口口口 |----|
11
口④⑤口 |①---|
口口②② |②---|
③口口⑥ |③-④-|
①①口口 |⑤-⑥-|
12
口④④口 |--①-|
①口口② |②---|
口③③口 |③---|
口口口口 |④---|
13
口⑤④口 |①---|
②②口口 |②---|
⑥口口③ |③-④-|
口口①① |⑤-⑥-|
14
口口口口 |--①-|
②③③① |②---|
口④④口 |③---|
口口口口 |④---|
15
口④口⑥ |①---|
③口⑤② |②---|
口口口口 |③-④-|
①口口口 |⑤-⑥-|
16
①口③口 |--①-|
口②口④ |②-③-|
口⑤⑤口 |④---|
口口口口 |⑤---|
17
口口口口 |①-②-|
③口⑥④ |③-④-|
口⑤口口 |--⑤-|
①口口② |⑥---|
18
②口口③ |----|
口口口口 |①---|
②口口③ |②---|
口口①口 |③---|
19
口④⑤口 |①---|
口口②② |②---|
③口口⑥ |③-④-|
①①口口 |⑤-⑥-|
20
口④④口 |--①-|
①口口② |②---|
口③③口 |③---|
口口口口 |④---|
21
口⑤④口 |①---|
②②口口 |②---|
⑥口口③ |③-④-|
口口①① |⑤-⑥-|
22
口口口口 |--①-|
②③③① |②---|
口④④口 |③---|
口口口口 |④---|
23
口④口⑥ |①---|
③口⑤② |②---|
口口口口 |③-④-|
①口口口 |⑤-⑥-|
24
①口③口 |--①-|
口②口④ |②-③-|
口⑤⑤口 |④---|
口口口口 |⑤---|
25
口⑦口口 |①-②-|
③口⑥④ |③-④-|
口⑤口口 |--⑤-|
①口口② |⑥-⑦-|
26
②口口② |----|
口口口口 |①---|
③口口③ |②---|
口口①口 |③---|
27
口口口口 |①---|
①②③④ |②---|
口口口口 |③---|
①②③④ |④---|
28
④③②① |①---|
口口口口 |②---|
④③②① |③---|
口口口口 |④---|
29
口口口口 |①---|
①②③④ |②---|
口口口口 |③---|
①②③④ |④---|
30
口口③③ |①---|
②②口口 |②---|
口口①① |③---|
口口口口 |----|
31
口口口口 |--①-|
口口②① |②---|
③④口口 |③-④-|
口口口⑤ |--⑤-|
32
口口口④ |--①-|
①②④口 |②---|
口口口③ |③---|
口口③口 |④---|
33
口口口口 |--①-|
口③④口 |②-③-|
口⑤②口 |--④-|
口①⑥口 |⑤-⑥-|
34
②③④口 |----|
口口口口 |①---|
口口口口 |②-③-|
①口口① |④---|
35
口口口口 |--①-|
口口②① |②---|
③④口口 |③-④-|
口口口⑤ |--⑤-|
36
口口口⑤ |--①-|
④③②① |②-③-|
口口口⑤ |④---|
口口口口 |⑤---|
37
口口④口 |①-②-|
口③口口 |③-④-|
口口②口 |----|
口①口口 |----|
38
口口口口 |----|
口口口口 |----|
口口口口 |----|
口口口口 |----|
39
口口口口 |--①-|
①②口口 |②---|
口口④③ |③-④-|
⑤口口口 |--⑤-|
40
④口口口 |--①-|
口④②① |②---|
③口口口 |③---|
口③口口 |④---|
41
口口口口 |--①-|
口④③口 |②-③-|
口②⑤口 |--④-|
口⑥①口 |⑤-⑥-|
42
口④③② |----|
口口口口 |①---|
口口口口 |②-③-|
①口口① |④---|
43
口口口口 |--①-|
①②口口 |②---|
口口④③ |③-④-|
⑤口口口 |--⑤-|
44
口口口口 |①-②-|
⑦⑥⑤④ |③---|
口口口口 |④-⑤-|
口①②③ |⑥-⑦-|
45
④口③口 |①---|
口口口③ |②---|
②⑤口① |③---|
口②①口 |④-⑤-|
46
口口口口 |----|
口口口口 |----|
口口口口 |----|
口口口口 |----|
47
口口口口 |①-②-|
③口④③ |③---|
②⑤口② |--④-|
①口⑥① |⑤-⑥-|
48
口③口口 |----|
口口口口 |①---|
口口②口 |②---|
①口口口 |③---|
49
③口口③ |①-②-|
②口④② |③---|
①⑤口① |--④-|
口口⑥口 |⑤-⑥-|
50
口口口口 |--①-|
口③口口 |②-③-|
口口②口 |----|
口①口口 |----|
51
①④口① |①-②-|
②口⑤② |③---|
③⑥口③ |--④-|
口口口口 |⑤-⑥-|
52
口口口③ |①---|
④口口口 |②---|
口口口口 |③---|
②口①口 |④---|
53
口口口口 |①---|
口口口口 |----|
②口②口 |②---|
口①口① |----|
54
②口②口 |①---|
口①口① |----|
口口口口 |②---|
口口口口 |----|
55
口①⑧口 |①-②-|
口⑦②口 |③-④-|
口③⑥口 |⑤-⑥-|
口⑤④口 |⑦-⑧-|
56
口口口口 |①-②-|
①⑦口④ |③-④-|
②⑧口⑤ |⑤-⑥-|
③口口⑥ |⑦-⑧-|
57
口口口口 |①-②-|
⑦口②⑧ |③-④-|
口口③口 |⑤-⑥-|
⑤①④⑥ |⑦-⑧-|
58
口①②口 |①-②-|
口③④口 |③-④-|
口⑤⑥口 |⑤-⑥-|
口⑦口口 |⑦---|
59
口口口口 |----|
口口口口 |----|
口口口口 |----|
口口口口 |----|
60
口④⑤口 |①---|
口口②② |②---|
③口口⑥ |③-④-|
①①口口 |⑤-⑥-|
61
口④④口 |--①-|
①口口② |②---|
口③③口 |③---|
口口口口 |④---|
62
口⑤④口 |①---|
②②口口 |②---|
⑥口口③ |③-④-|
口口①① |⑤-⑥-|
63
口口口口 |--①-|
②③③① |②---|
口④④口 |③---|
口口口口 |④---|
64
口④口⑥ |①---|
③口⑤② |②---|
口口口口 |③-④-|
①口口口 |⑤-⑥-|
65
①口③口 |--①-|
口②口④ |②-③-|
口⑤⑤口 |④---|
口口口口 |⑤---|
66
口口口口 |①-②-|
③口⑥④ |③-④-|
口⑤口口 |--⑤-|
①口口② |⑥---|
67
②口口③ |----|
口口口口 |①---|
②口口③ |②---|
口口①口 |③---|
68
口④⑤口 |①---|
口口②② |②---|
③口口⑥ |③-④-|
①①口口 |⑤-⑥-|
69
口④④口 |--①-|
①口口② |②---|
口③③口 |③---|
口口口口 |④---|
70
口⑤④口 |①---|
②②口口 |②---|
⑥口口③ |③-④-|
口口①① |⑤-⑥-|
71
口口口口 |--①-|
②③③① |②---|
口④④口 |③---|
口口口口 |④---|
72
口④口⑥ |①---|
③口⑤② |②---|
口口口口 |③-④-|
①口口口 |⑤-⑥-|
73
①口③口 |--①-|
口②口④ |②-③-|
口⑤⑤口 |④---|
口口口口 |⑤---|
74
口⑦口口 |①-②-|
③口⑥④ |③-④-|
口⑤口口 |--⑤-|
①口口② |⑥-⑦-|
75
②口口② |----|
口口口口 |①---|
③口口③ |②---|
口口①口 |③---|
76
口⑦⑧口 |①②-③|
口⑤⑥口 |④-⑤⑥|
⑨③④⑨ |-⑦⑧-|
口①②口 |--⑨-|
77
口口口③ |----|
②口口口 |①---|
口口口口 |②---|
口口①口 |③---|
78
口①②口 |①②-③|
⑨③④⑨ |④-⑤⑥|
口⑤⑥口 |-⑦⑧-|
口⑦⑧口 |--⑨-|
79
口口口① |----|
口口口口 |①---|
口②口口 |②---|
口口③口 |③---|
80
⑦口口⑧ |①②-③|
⑤口口⑥ |④-⑤⑥|
③⑨⑨④ |-⑦⑧-|
①口口② |--⑨-|
81
口口③口 |----|
口②口口 |①---|
口口口口 |②---|
口口口① |③---|
82
①口口② |①②-③|
③⑨⑨④ |④-⑤⑥|
⑤口口⑥ |-⑦⑧-|
⑦口口⑧ |--⑨-|
83
口口①口 |----|
口口口口 |①---|
口②口口 |②---|
口口口③ |③---|
84
口口口口 |①---|
①②③④ |②---|
口口口口 |③---|
①②③④ |④---|
85
④③②① |①---|
口口口口 |②---|
④③②① |③---|
口口口口 |④---|
86
口口④④ |①---|
③③口口 |②---|
口口②② |③---|
①①口口 |④---|
87
④④④④ |①---|
③③③③ |②---|
②②②② |③---|
①①①① |④---|

accuracy: 100%
最終更新:2023年07月20日 01:40