アットウィキロゴ
Cranberry
BEMANI Sound Team "肥塚良彦"

EXTREME

Level: 9.7
BPM: 180
Notes: 816

1
口口口口 |----|
口口口口 |----|
口口口口 |----|
口口口口 |----|
2
⑥口口口 |①-②-|
④①口口 |③---|
②⑥口口 |④-⑤-|
⑤③口口 |--⑥-|
3
口口⑤⑥ |--①-|
口口④⑦ |②-③-|
口口②③ |④-⑤-|
口口①口 |⑥-⑦-|
4
⑥口口口 |①-②-|
④①口口 |③---|
②⑥口口 |④-⑤-|
⑤③口口 |--⑥-|
5
口口①口 |--①-|
口口②③ |②-③-|
口口④⑦ |④-⑤-|
口口⑤⑥ |⑥-⑦-|
6
⑦口⑦口 |①-②-|
④①口⑥ |③---|
②⑦口口 |④-⑤-|
⑤③口口 |⑥-⑦-|
7
口③口② |--①-|
⑤⑥⑦⑧ |②-③-|
⑨口口④ |④--⑤⑥⑦|
口口①口 |⑧-⑨-|
8
口口口口 |①---|
口口口口 |--②③|
口③口口
口②①①

口口口口
口④口口
口口口⑥ |④---|
口口口⑤ |--⑤⑥|
9
口②②口 |①---|
口口口① |②---|
口口口口 |----|
口②②口 |----|
10
口②①口 |----|
口④③口 |----|
口⑥⑤口 |①②③④|
口⑧⑦口 |⑤⑥⑦⑧|
11
口口口口 |①-②-|
③口口① |③-④-|
口口口口
④口口②

⑦⑥口⑧
口口⑤⑧
⑥⑦口⑤ |⑤-⑥-|
口口口口 |⑦-⑧-|
12
口⑥②⑨ |--①-|
①①③口 |②③④⑤--|
口口④⑦ |⑥-⑦-|
口⑧⑤口 |⑧-⑨-|
13
口口口口 |①-②-|
①口口③ |③-④-|
口口口口
②口口④

⑧口⑥⑦
⑧⑤口口
⑤口⑦⑥ |⑤-⑥-|
口口口口 |⑦-⑧-|
14
口②⑥⑨ |--①-|
口③口① |②③④⑤--|
口④口⑦ |⑥-⑦-|
⑧⑤①口 |⑧-⑨-|
15
⑩③⑧⑩ |①-②-|
①⑦⑥口 |③-④⑤|
口⑤④口 |⑥⑦⑧-|
口⑨②口 |⑨-⑩-|
16
口⑨口⑩ |--①②|
口⑦⑥⑤ |③④⑤⑥|
④③②① |⑦-⑧-|
⑧口口口 |⑨-⑩-|
17
⑥口口口 |①-②-|
②口④⑥ |③-④-|
④⑤口③ |--⑤-|
口①①口 |⑥---|
18
⑦③④④ |--①-|
口⑤口口 |②-③-|
⑤⑦⑥② |④-⑤-|
①口⑥口 |⑥-⑦-|
19
口口口口 |①-②-|
③口口① |③-④-|
口口口口
④口口②

⑦⑥口⑧
口口⑤⑧
⑥⑦口⑤ |⑤-⑥-|
口口口口 |⑦-⑧-|
20
口⑥②⑨ |--①-|
①①③口 |②③④⑤--|
口口④⑦ |⑥-⑦-|
口⑧⑤口 |⑧-⑨-|
21
口口口口 |①-②-|
①口口③ |③-④-|
口口口口
②口口④

⑧口⑥⑦
⑧⑤口口
⑤口⑦⑥ |⑤-⑥-|
口口口口 |⑦-⑧-|
22
口②⑥⑨ |--①-|
口③口① |②③④⑤--|
口④口⑦ |⑥-⑦-|
⑧⑤①口 |⑧-⑨-|
23
⑩③⑧⑩ |①-②-|
①⑦⑥口 |③-④⑤|
口⑤④口 |⑥⑦⑧-|
口⑨②口 |⑨-⑩-|
24
⑭⑬⑫⑪ |--①②|
⑩⑨⑧⑦ |③④⑤⑥|
③④⑤⑥ |⑦⑧⑨⑩|
口口②① |⑪⑫⑬⑭|
25
⑦口口⑦ |①-②-|
口口口④ |③-④-|
③⑥口口 |--⑤-|
⑤②⑤① |⑥-⑦-|
26
口⑦④口 |--①-|
①口口口 |②-③-|
口⑥口③ |④-⑤-|
口②口⑤ |⑥-⑦-|
27
①④口④ |①---|
口③②③ |②---|
①④①口 |③---|
②口②③ |④---|
28
①口①④ |①---|
②③②口 |②---|
口④①④ |③---|
②③口③ |④---|
29
①口②④ |①---|
口③口① |②---|
①口②④ |③---|
②③④③ |④---|
30
①②口口 |①---|
②③①③ |②---|
①口③口 |③---|
②③口③ |----|
31
①口口口 |--①-|
口⑤⑤③ |②---|
口②口口 |③-④-|
口口④口 |--⑤-|
32
口口⑤⑥ |--①-|
③口口口 |②-③-|
②口⑦④ |④-⑤-|
口①口口 |⑥-⑦-|
33
③口口口 |--①-|
口②口④ |②-③-|
①口⑤口 |--④-|
口口口⑥ |⑤-⑥-|
34
②③④口 |----|
①口口口 |①---|
口①口口 |②-③-|
②③④口 |④---|
35
口口口① |--①-|
③⑤⑤口 |②---|
口口②口 |③-④-|
口④口口 |--⑤-|
36
口③②① |--①②|
⑥口⑧⑤ |③-④-|
口口口口 |⑤-⑥-|
⑦口④口 |⑦-⑧-|
37
②口④③ |①-②-|
口④口口 |③-④-|
口①①口 |----|
口口口口 |----|
38
口口③口 |--①-|
②口口⑦ |②-③-|
⑤口口④ |④-⑤-|
口①⑥口 |⑥-⑦-|
39
口口口① |--①-|
③⑤⑤口 |②---|
口口②口 |③-④-|
口④口口 |--⑤-|
40
⑥⑤口口 |--①-|
口口口③ |②-③-|
④⑦口② |④-⑤-|
口口①口 |⑥-⑦-|
41
口口口③ |--①-|
④口②口 |②-③-|
口⑤口① |--④-|
⑥口口口 |⑤-⑥-|
42
口④③② |----|
口口口① |①---|
口口①口 |②-③-|
口④③② |④---|
43
①口口口 |--①-|
口⑤口③ |②---|
口②口口 |③-④-|
口口④口 |--⑤-|
44
口④③② |①-②③|
⑦口⑥⑨ |④-⑤-|
口⑧口口 |⑥-⑦-|
①口口⑤ |⑧-⑨-|
45
①⑧⑧⑤ |①-②-|
口③口口 |③-④-|
②口口⑥ |⑤-⑥-|
口④⑦口 |⑦-⑧-|
46
口口口口 |----|
⑨③口⑧ |--①②|
⑦②口⑥ |③-④⑤|
⑤①口④ |⑥⑦⑧⑨|
47
口③②① |①-②-|
口口④口 |③---|
⑤③②口 |--④-|
口口⑥口 |⑤-⑥-|
48
口口口③ |--①-|
①口⑥口 |②-③-|
⑦⑤口④ |④-⑤-|
口②口口 |⑥-⑦-|
49
①②③④ |①-②-|
⑥口口口 |③---|
⑥口⑤口 |--④-|
①②③口 |⑤-⑥-|
50
口口口口 |--①-|
口②口③ |②-③-|
口口口③ |----|
①口口口 |----|
51
口③②① |①-②-|
④口口⑥ |③---|
口⑤口口 |--④-|
口③②① |⑤-⑥-|
52
①口口③ |①---|
口②②口 |②---|
④口口④ |③---|
①口口③ |④---|
53
口①①口 |①---|
口④口口 |--②③|
口③口⑥ |④---|
口②口⑤ |--⑤⑥|
54
口②③口 |①---|
口④⑤① |----|
口⑥⑦口 |②③④⑤|
口⑧⑨口 |⑥⑦⑧⑨|
55
①口口⑧ |①-②-|
口口⑦③ |③-④-|
②⑥口口 |⑤-⑥-|
⑤口口④ |⑦-⑧-|
56
口①口口 |①-②③|
⑤口口② |④-⑤-|
⑤口①③
口口口④

⑨口口⑨
口⑥⑩口
口⑦⑪口 |⑥⑦⑧-|
口⑧口口 |⑨-⑩⑪|
57
口⑫②口 |①-②-|
③⑧⑪⑦ |③④⑤-|
④⑩口② |⑥⑦⑧⑨|
⑤⑥①⑨ |⑩⑪⑫-|
58
②口①① |①-②③|
③⑫⑪⑩ |④⑤⑥⑦|
④口口⑨ |⑧⑨⑩⑪|
⑤⑥⑦⑧ |⑫---|
59
口口口口 |----|
口口口口 |----|
口口口口 |----|
口口口口 |----|
60
口口口口 |①-②-|
③口口① |③-④-|
口口口口
④口口②

⑦⑥口⑧
口口⑤⑧
⑥⑦口⑤ |⑤-⑥-|
口口口口 |⑦-⑧-|
61
口⑥②⑨ |--①-|
①①③口 |②③④⑤--|
口口④⑦ |⑥-⑦-|
口⑧⑤口 |⑧-⑨-|
62
口口口口 |①-②-|
①口口③ |③-④-|
口口口口
②口口④

⑧口⑥⑦
⑧⑤口口
⑤口⑦⑥ |⑤-⑥-|
口口口口 |⑦-⑧-|
63
口②⑥⑨ |--①-|
口③口① |②③④⑤--|
口④口⑦ |⑥-⑦-|
⑧⑤①口 |⑧-⑨-|
64
⑩③⑧⑩ |①-②-|
①⑦⑥口 |③-④⑤|
口⑤④口 |⑥⑦⑧-|
口⑨②口 |⑨-⑩-|
65
口⑨口⑩ |--①②|
口⑦⑥⑤ |③④⑤⑥|
④③②① |⑦-⑧-|
⑧口口口 |⑨-⑩-|
66
⑥口口口 |①-②-|
②口④⑥ |③-④-|
④⑤口③ |--⑤-|
口①①口 |⑥---|
67
⑦③④④ |--①-|
口⑤口口 |②-③-|
⑤⑦⑥② |④-⑤-|
①口⑥口 |⑥-⑦-|
68
口口口口 |①-②-|
③口口① |③-④-|
口口口口
④口口②

⑦⑥口⑧
口口⑤⑧
⑥⑦口⑤ |⑤-⑥-|
口口口口 |⑦-⑧-|
69
口⑥②⑨ |--①-|
①①③口 |②③④⑤--|
口口④⑦ |⑥-⑦-|
口⑧⑤口 |⑧-⑨-|
70
口口口口 |①-②-|
①口口③ |③-④-|
口口口口
②口口④

⑧口⑥⑦
⑧⑤口口
⑤口⑦⑥ |⑤-⑥-|
口口口口 |⑦-⑧-|
71
口②⑥⑨ |--①-|
口③口① |②③④⑤--|
口④口⑦ |⑥-⑦-|
⑧⑤①口 |⑧-⑨-|
72
⑩③⑧⑩ |①-②-|
①⑦⑥口 |③-④⑤|
口⑤④口 |⑥⑦⑧-|
口⑨②口 |⑨-⑩-|
73
⑭⑬⑫⑪ |--①②|
⑩⑨⑧⑦ |③④⑤⑥|
③④⑤⑥ |⑦⑧⑨⑩|
口口②① |⑪⑫⑬⑭|
74
⑦口口⑦ |①-②-|
口口口④ |③-④-|
③⑥口口 |--⑤-|
⑤②⑤① |⑥-⑦-|
75
口口④⑥ |--①-|
①口口口 |②-③-|
口口⑤③ |④-⑤-|
口②⑦口 |⑥-⑦-|
76
⑥⑥⑧⑧ |①②-③|
②②④④ |④-⑤⑥|
⑨⑤⑦⑨ |-⑦⑧-|
①⑨⑨③ |--⑨-|
77
③口口⑤ |--①-|
⑦②口④ |②-③-|
口口口口 |④-⑤-|
①⑥口口 |⑥-⑦-|
78
⑧⑧⑥⑥ |①②-③|
⑨⑦⑤⑨ |④-⑤⑥|
④④②② |-⑦⑧-|
③⑨⑨① |--⑨-|
79
口口④口 |--①-|
口口口⑥ |②-③-|
口⑤①口 |④-⑤-|
③口⑦② |⑥-⑦-|
80
①⑨⑨③ |①②-③|
⑤②④⑦ |④-⑤⑥|
①⑥⑧③ |-⑦⑧-|
⑤⑨⑨⑦ |--⑨-|
81
①口口⑥ |--①-|
口口口口 |②-③-|
口②⑤口 |④-⑤-|
④口口③ |⑥---|
82
⑨③①⑨ |①②-③|
③④②① |④-⑤⑥|
⑦⑨⑨⑤ |-⑦⑧-|
⑧⑦⑤⑥ |--⑨-|
83
口②④口 |--①-|
⑤口口① |②-③-|
口口口⑥ |④-⑤-|
口⑦③口 |⑥-⑦-|
84
①④口④ |①---|
口③②③ |②---|
①④①口 |③---|
②口②③ |④---|
85
①口①④ |①---|
②③②口 |②---|
口④①④ |③---|
②③口③ |④---|
86
①口②④ |①---|
口③口① |②---|
①口②④ |③---|
②③④③ |④---|
87
①④③④ |①---|
②口①② |②---|
①③②口 |③---|
④口④③ |④---|

accuracy: 100%
最終更新:2023年07月20日 01:59