アットウィキロゴ
Liar×Girl
BEMANI Sound Team "HuΣeR" feat.ゆきまめ

BASIC

Level: 3
BPM: 164
Notes: 285

1
口口口口 |----|
口口口口 |----|
口口口口 |----|
口口口口 |----|
2
①口口口 |----|
口②口口 |----|
口口口口 |①---|
口口口口 |②---|
3
口口口口 |①---|
口口口口 |----|
②口口① |②---|
②口口① |----|
4
②口口① |①---|
②口口① |----|
口口口口 |②---|
口口口口 |----|
5
口口口口 |①---|
口口口口 |----|
口②①口 |②---|
口②①口 |----|
6
口①①口 |①---|
口②②口 |----|
口口口口 |②---|
口口口口 |----|
7
口口口口 |①---|
口口口口 |----|
②口口① |②---|
②口口① |----|
8
②口口① |①---|
②口口① |----|
口口口口 |②---|
口口口口 |----|
9
口口口口 |①---|
口口口口 |----|
口②①口 |②---|
口②①口 |----|
10
口①①口 |①---|
口②②口 |----|
口口口口 |②---|
口口口口 |----|
11
口口口口 |①---|
口口口口 |----|
口①①口 |----|
口口口口 |----|
12
口口口④ |①---|
口口③口 |②---|
口②口口 |③---|
①口口口 |④---|
13
口①①口 |①---|
口口口口 |②---|
口口口口 |③---|
④③②口 |④---|
14
口口口口 |①---|
口口口口 |②---|
①②③④ |③---|
口口口口 |④---|
15
口口口口 |①---|
④③②① |②---|
口口口口 |③---|
口口口口 |④---|
16
①②③④ |①---|
口口口口 |②---|
口口口口 |③---|
口口口口 |④---|
17
④口口口 |①---|
③口口口 |②---|
②口口口 |③---|
①口口口 |④---|
18
口①口口 |①---|
口②口口 |②---|
口③口口 |③---|
口④口口 |④---|
19
口口④口 |①---|
口口③口 |②---|
口口②口 |③---|
口口①口 |④---|
20
口口口① |①---|
口口口② |②---|
口口口③ |③---|
口口口④ |④---|
21
口口口口 |①---|
口②口口 |----|
口①口口 |②---|
口口口口 |----|
22
口口口口 |①---|
口口②口 |----|
口口①口 |②---|
口口口口 |----|
23
口口口口 |①---|
口口口口 |----|
口②口口 |②---|
①①口口 |----|
24
口口口口 |①---|
口口口口 |----|
口口②口 |②---|
口口①口 |----|
25
①①口口 |①---|
口口②② |----|
口口口口 |②---|
口口口口 |----|
26
口口口口 |①---|
口口口口 |----|
①①口口 |②---|
口口②② |----|
27
口口口口 |①---|
口口口口 |----|
口口②② |②---|
①①口口 |----|
28
口口②② |①---|
①①口口 |----|
口口口口 |②---|
口口口口 |----|
29
③口口口 |①---|
口②②口 |②---|
口①口口 |----|
口口口口 |③---|
30
口①②口 |①---|
口口口口 |②---|
③口口口 |----|
口口口口 |③---|
31
口口④口 |①---|
口口③口 |②---|
口口②口 |③---|
口口①口 |④---|
32
口①口口 |①---|
口②口口 |②---|
口③口口 |③---|
口④口口 |④---|
33
②③④口 |①---|
口口①口 |②---|
口口口口 |③---|
口口口口 |④---|
34
口口口① |①---|
口口口口 |----|
口②②口 |②---|
口口口口 |----|
35
②口口口 |①---|
口①①口 |----|
口口口口 |----|
口口口口 |②---|
36
口口口① |①---|
口口②口 |②---|
口③口口 |③---|
④口口口 |④---|
37
口口口口 |①---|
口口②② |----|
口口①① |②---|
口口口口 |----|
38
①口口口 |①---|
口②口口 |②---|
口口③口 |③---|
口口口口 |----|
39
口口口口 |①---|
②②口口 |----|
①①口口 |②---|
口口口口 |----|
40
口口口① |①---|
口口②口 |②---|
口③口口 |③---|
④口口口 |④---|
41
口口口口 |①---|
口口口口 |----|
口②口口 |②---|
口口①口 |----|
42
口②口口 |①---|
口口①口 |----|
口口口口 |②---|
口口口口 |----|
43
口口口① |①---|
②口口口 |----|
口口口口 |②---|
口口口口 |----|
44
口口口口 |①---|
口口口口 |----|
口口口① |②---|
②口口③ |③---|
45
①口口② |①---|
③口口④ |②---|
口口口口 |③---|
口口口口 |④---|
46
口口口口 |①---|
口口口口 |②---|
①口口② |③---|
③口口④ |④---|
47
口①②口 |①---|
口③④口 |②---|
口口口口 |③---|
口口口口 |④---|
48
口口口口 |①---|
口口口口 |②---|
口①②口 |③---|
口③④口 |④---|
49
口口④② |①---|
口口口口 |②---|
口口口口 |③---|
①③口口 |④---|
50
④②口口 |①---|
口口口口 |②---|
口口口口 |③---|
口口①③ |④---|
51
口口口口 |①---|
②口口③ |②---|
④口口① |③---|
口口口口 |④---|
52
口口③① |①---|
口口口口 |②---|
口口口口 |③---|
②④口口 |④---|
53
②④口② |①---|
口①①口 |②---|
口口口口 |③---|
口口③口 |④---|
54
②口口口 |①---|
④口口口 |②---|
口口口③ |③---|
口口口① |④---|
55
口口口③ |①---|
口口口① |②---|
②口口口 |③---|
④口口口 |④---|
56
口③①口 |①---|
口口口口 |②---|
口口口口 |③---|
口②④口 |④---|
57
口口口口 |①---|
口④①口 |②---|
口②③口 |③---|
口口口口 |④---|
58
④口口① |①---|
口口口口 |②---|
口口口口 |③---|
②口口③ |④---|
59
口④①口 |①---|
口口口口 |②---|
口口口口 |③---|
口②③口 |④---|
60
口口口① |①---|
口口②口 |②---|
口③口口 |③---|
④口口口 |④---|
61
口②②口 |①---|
口口口③ |②---|
口口口口 |③---|
④①①口 |④---|
62
口口口口 |①---|
口口口口 |②---|
①②③④ |③---|
口口口口 |④---|
63
口口口口 |①---|
④③②① |②---|
口口口口 |③---|
口口口口 |④---|
64
①②③④ |①---|
口口口口 |②---|
口口口口 |③---|
口口口口 |④---|
65
④口口口 |①---|
③口口口 |②---|
②口口口 |③---|
①口口口 |④---|
66
口①口口 |①---|
口②口口 |②---|
口③口口 |③---|
口④口口 |④---|
67
口口④口 |①---|
口口③口 |②---|
口口②口 |③---|
口口①口 |④---|
68
口口口① |①---|
口口口② |②---|
口口口③ |③---|
口口口④ |④---|
69
口②②口 |①---|
④口口口 |②---|
口③口口 |③---|
①口口口 |④---|
70
口口④口 |①---|
口口口③ |②---|
口口②口 |③---|
口口口① |④---|
71
①口口口 |①---|
口②口口 |②---|
③口口口 |③---|
口④口口 |④---|
72
口口口① |①---|
口口②口 |②---|
口口口③ |③---|
口口④口 |④---|
73
口②②口 |①---|
口口④口 |②---|
口①口③ |③---|
口口口口 |④---|
74
④口口口 |①---|
口③口口 |②---|
②口口口 |③---|
口①口口 |④---|
75
口口口① |①---|
口口②口 |②---|
口口口③ |③---|
口口④口 |④---|
76
①口口口 |①---|
口②口口 |②---|
③口口口 |③---|
口④口口 |④---|

accuracy: 100%
最終更新:2023年10月19日 17:40