アットウィキロゴ
Liar×Girl
BEMANI Sound Team "HuΣeR" feat.ゆきまめ

ADVANCED

Level: 7
BPM: 164
Notes: 520

1
口口口口 |----|
口口口口 |----|
口口口口 |----|
口口口口 |----|
2
①口口口 |----|
口口口口 |----|
口②口口 |①---|
口口口口 |②---|
3
口口口口 |①---|
口口口口 |②---|
③④②① |③---|
③④②① |④---|
4
③④②① |①---|
③④②① |②---|
口口口口 |③---|
口口口口 |④---|
5
口口口口 |①---|
口口口口 |②---|
④④②② |③---|
③③①① |④---|
6
③①①③ |①---|
④②②④ |②---|
口口口口 |③---|
口口口口 |④---|
7
口口口口 |①---|
口口口口 |②---|
③④②① |③---|
③④②① |④---|
8
③④②① |①---|
③④②① |②---|
口口口口 |③---|
口口口口 |④---|
9
口口口口 |①---|
口口口口 |②---|
④④②② |③---|
③③①① |④---|
10
口①①口 |①---|
口口口口 |----|
口口③口 |②---|
口口②口 |③---|
11
口口口口 |①---|
口口①口 |----|
口口口口 |----|
口口口口 |----|
12
①口口② |①---|
口口口口 |②---|
口口口口 |③---|
④口口③ |④---|
13
②③口② |①---|
口①①口 |②---|
口②②口 |③---|
口口口④ |④---|
14
①口口口 |①---|
③④⑤⑥ |②---|
口口口口 |③-④-|
口口②口 |⑤-⑥-|
15
口口②④ |①---|
口口口口 |②---|
口口口口 |③---|
③①口口 |④---|
16
口口口口 |①-②-|
⑤⑥⑦⑧ |③-④-|
①②③④ |⑤-⑥-|
口口口口 |⑦-⑧-|
17
③口②口 |①---|
口口口口 |②---|
口口口口 |③---|
口①口④ |④---|
18
口口口② |①---|
③④⑤⑥ |②---|
口口口口 |③-④-|
①口口口 |⑤-⑥-|
19
口③口② |①---|
口口口口 |②---|
口口口口 |③---|
①口④口 |④---|
20
口口口口 |①-②-|
⑤⑥⑦⑧ |③-④-|
①②③④ |⑤-⑥-|
口口口口 |⑦-⑧-|
21
口③②口 |①---|
口口口口 |②-③-|
口⑤④口 |--④-|
①口口口 |⑤---|
22
口④口口 |①-②-|
②口⑤① |--③-|
口⑥口口 |④-⑤-|
口口③口 |⑥---|
23
口口①① |①---|
口④⑤口 |②-③-|
②口口③ |--④-|
口口口口 |⑤---|
24
②口口口 |①---|
口口口口 |②---|
口口口口
口①口口

口口③口
口④口口
口口⑤口 |③-④-|
口⑥口口 |⑤-⑥-|
25
口④③② |①---|
口口口口 |②---|
口口口口 |③---|
口口口① |④---|
26
④口⑤口 |①-②-|
口⑥口③ |③-④-|
②口⑦口 |⑤-⑥-|
口口口① |⑦---|
27
②③④① |①---|
口口口口 |②---|
口口口口 |③---|
口口口口 |④---|
28
⑤口口④ |①-②-|
③口口⑥ |③-④-|
⑦口口② |⑤-⑥-|
①口口⑧ |⑦-⑧-|
29
③②②口 |①---|
口④口口 |②---|
口①⑤口 |--③-|
口口口口 |④-⑤-|
30
口口口① |①-②-|
②口口口 |③-④-|
口⑥⑤③ |--⑤-|
④口口口 |⑥---|
31
口口口① |①---|
②③口口 |②-③-|
口口⑤④ |--④-|
口口口口 |⑤---|
32
①口①口 |①---|
口②口② |②---|
③口③口 |③---|
口④口④ |④---|
33
②③④口 |①---|
口口①口 |②---|
口①口口 |③---|
口⑤口口 |④-⑤-|
34
⑥⑥口口 |①-②-|
口②口③ |③-④-|
④口①口 |⑤---|
口口口⑤ |⑥---|
35
口口①① |①---|
口口口口 |----|
口②②口 |----|
口口口口 |②---|
36
①口口② |①-②-|
③口口④ |③-④-|
⑤口口口 |⑤---|
口口口口 |----|
37
口口①① |①---|
口②②口 |②---|
口口③③ |③---|
口④④口 |④---|
38
③口口⑥ |①-②-|
②口口⑤ |③---|
①口口④ |④-⑤-|
口口口口 |⑥---|
39
①①口口 |①---|
口②②口 |②---|
③③口口 |③---|
口④④口 |④---|
40
④③②① |①---|
④③②① |②---|
口口口口 |③---|
口口口口 |④---|
41
口口③口 |①---|
④口口口 |--②-|
口口①⑤ |③-④-|
②⑥口口 |⑤-⑥-|
42
口口口① |①---|
口口②口 |②---|
口③口口 |③---|
④口口口 |④---|
43
④口口口 |①---|
口③口口 |②---|
口口②口 |③---|
口口口① |④---|
44
口⑤②口 |①---|
口③④口 |----|
口①①口 |②-③-|
口口口口 |④-⑤-|
45
④⑤⑥口 |①-②-|
④⑤⑥口 |③---|
口③②① |④-⑤-|
口③②① |⑥---|
46
⑥⑤④口 |①-②-|
⑥⑤④口 |③---|
口①②③ |④-⑤-|
口①②③ |⑥---|
47
口口口口 |①-②-|
⑥⑥③③ |③---|
⑤⑤②② |④-⑤-|
④④①① |⑥---|
48
口①①口 |①---|
口口口口 |②-③-|
口③口口
口口②口

口⑦口④
⑤口⑥口
口口口口 |④-⑤-|
口口口口 |⑥-⑦-|
49
④⑤⑥口 |①-②-|
④⑤⑥口 |③---|
口③②① |④-⑤-|
口③②① |⑥---|
50
⑥⑤④口 |①-②-|
⑥⑤④口 |③---|
口①②③ |④-⑤-|
口①②③ |⑥---|
51
口口口口 |①-②-|
口口③③ |③---|
口口②②
口口①①

口口口口
口口口口
④④⑥口 |④---|
口⑤口口 |⑤-⑥-|
52
⑥口口⑤ |①---|
②①口口 |②-③-|
口口口口 |④-⑤-|
④口③⑦ |⑥-⑦-|
53
③④⑤口 |①---|
③④⑤口 |②---|
②②②② |③-④-|
口①口口 |⑤---|
54
⑥⑤④口 |①-②-|
⑥⑤④口 |③---|
口①②③ |④-⑤-|
口①②③ |⑥---|
55
口口口口 |①-②-|
⑥⑥③③ |③---|
⑤⑤②② |④-⑤-|
④④①① |⑥---|
56
口①①口 |①---|
口口口口 |②-③-|
口③口口
口口②口

口⑦口④
⑤口⑥口
口口口口 |④-⑤-|
口口口口 |⑥-⑦-|
57
④⑤⑥口 |①-②-|
④⑤⑥口 |③---|
口③②① |④-⑤-|
口③②① |⑥---|
58
⑥⑤④口 |①-②-|
⑥⑤④口 |③---|
口①②③ |④-⑤-|
口①②③ |⑥---|
59
口口口口 |①-②-|
口口③③ |③---|
口口②②
口口①①

口口口口
口口口口
④④⑥口 |④---|
口⑤口口 |⑤-⑥-|
60
口④口③ |①---|
②①口⑤ |②-③-|
⑥口口口 |④-⑤-|
口口⑦口 |⑥-⑦-|
61
②③口② |①---|
口①口口 |②---|
口②②口 |③---|
口口口④ |④---|
62
①口口口 |①---|
③④⑤⑥ |②---|
口口口口 |③-④-|
口口②口 |⑤-⑥-|
63
口口②④ |①---|
口口口口 |②---|
口口口口 |③---|
③①口口 |④---|
64
口口口口 |①-②-|
⑤⑥⑦⑧ |③-④-|
①②③④ |⑤-⑥-|
口口口口 |⑦-⑧-|
65
③口②口 |①---|
口口口口 |②---|
口口口口 |③---|
口①口④ |④---|
66
口口口② |①---|
③④⑤⑥ |②---|
口口口口 |③-④-|
①口口口 |⑤-⑥-|
67
口③口② |①---|
口口口口 |②---|
口口口口 |③---|
①口④口 |④---|
68
口口口口 |①-②-|
⑤⑥⑦⑧ |③-④-|
①②③④ |⑤-⑥-|
口口口口 |⑦-⑧-|
69
口③②② |①---|
口口口口 |②---|
口口口口 |③---|
①①口④ |④---|
70
①口口口 |①---|
③④⑤⑥ |②---|
口口口口 |③-④-|
口口②口 |⑤-⑥-|
71
口口②④ |①---|
口口口口 |②---|
口口口口 |③---|
③①口口 |④---|
72
口口口口 |①-②-|
⑤⑥⑦⑧ |③-④-|
①②③④ |⑤-⑥-|
口口口口 |⑦-⑧-|
73
③口②口 |①---|
口口口口 |②---|
口口口口 |③---|
口①口④ |④---|
74
口口口② |①---|
③④⑤⑥ |②---|
口口口口 |③-④-|
①口口口 |⑤-⑥-|
75
口③口② |①---|
口口口口 |②---|
口口口口 |③---|
①口④口 |④---|
76
口口口口 |①-②-|
⑤⑥⑦⑧ |③-④-|
①②③④ |⑤-⑥-|
口口口口 |⑦-⑧-|

accuracy: 100%
最終更新:2023年10月19日 17:53