アットウィキロゴ
Liar×Girl
BEMANI Sound Team "HuΣeR" feat.ゆきまめ

EXTREME

Level: 10.3
BPM: 164
Notes: 749

1
口口口口 |----|
口口口口 |----|
口口口口 |----|
口口口口 |----|
2
口口口④ |----|
口③口口 |----|
口口②口 |①-②-|
①口口口 |③-④-|
3
①③⑤⑦ |①-②-|
口口口口 |③-④-|
②④⑥⑧ |⑤-⑥-|
口口口口 |⑦-⑧-|
4
口口口口 |①-②-|
①③⑤⑦ |③-④-|
口口口口 |⑤-⑥-|
②④⑥⑧ |⑦-⑧-|
5
口⑤口① |①-②-|
⑦口③口 |③-④-|
口⑥口② |⑤-⑥-|
口口④口 |⑦---|
6
④口①口 |①---|
口口⑤① |②-③-|
口⑥③口 |④-⑤-|
②②口⑦ |⑥-⑦-|
7
口口口口 |①-②-|
①③⑤⑦ |③-④-|
口口口口 |⑤-⑥-|
②④⑥⑧ |⑦-⑧-|
8
①③⑤⑦ |①-②-|
口口口口 |③-④-|
②④⑥⑧ |⑤-⑥-|
口口口口 |⑦-⑧-|
9
口口③口 |①-②-|
口⑤口① |③-④-|
口⑦④口 |⑤---|
⑥口口② |⑥-⑦-|
10
②④口口 |①---|
口口①⑤ |②-③-|
⑥口口口 |④-⑤-|
口口⑦③ |⑥-⑦-|
11
③口口② |①---|
口口口口 |②---|
口①口口 |③---|
④口口口 |④---|
12
口②口② |①---|
口口口① |②---|
口口口口
口口口①

③口口口
口口口口
③口口口 |③---|
⑦⑥⑤④ |④⑤⑥⑦|
13
口②②① |①---|
③④①① |②-③④|
口②②口
口口口口

⑤口口口
口口⑩口
⑨口口⑥ |-⑤-⑥|
口⑧⑦口 |⑦⑧⑨⑩|
14
口⑨⑧⑦ |-①②③|
⑥⑬⑩③ |-④⑤⑥|
口⑤②口 |-⑦⑧⑨|
④⑪⑫① |⑩⑪⑫⑬|
15
③口口口 |①-②-|
口口口② |③-④⑤|
口口⑤④
口口口①

口口口⑥
⑦⑧⑨口
口口口口 |-⑥-⑦|
口口口⑩ |⑧⑨-⑩|
16
③⑥口口 |-①②③|
口口口口 |-④⑤⑥|
口②⑤口
①④口口

口口⑨口
口口⑪口
口口口⑧ |-⑦⑧⑨|
⑩口⑦⑪ |-⑩-⑪|
17
口口口② |①---|
③④口口 |②-③④|
①①口口
口口口口

⑤口口口
口口⑩口
⑨口口⑥ |-⑤-⑥|
口⑧⑦口 |⑦⑧⑨⑩|
18
口⑨⑧⑦ |-①②③|
⑥⑬⑩③ |-④⑤⑥|
口⑤②口 |-⑦⑧⑨|
④⑪⑫① |⑩⑪⑫⑬|
19
③口口口 |①-②-|
口口口② |③-④⑤|
口口⑤④
口口口①

口口口⑥
⑦⑧⑨口
口口口口 |-⑥-⑦|
口口口⑩ |⑧⑨-⑩|
20
③⑥口口 |-①②③|
口口口口 |-④⑤⑥|
口②⑤口
①④口口

口口⑨口
口口口⑪
口口口⑧ |-⑦⑧⑨|
⑩口⑦⑪ |-⑩-⑪|
21
①口口③ |①---|
①⑤口口 |②-③-|
①口②口 |--④-|
口口④口 |⑤---|
22
口②⑥口 |①-②-|
⑥口口③ |--③-|
①④口口 |④-⑤-|
口口口⑤ |⑥---|
23
①口口② |①---|
口④①口 |②-③-|
口口③口 |--④-|
⑤口口口 |⑤---|
24
口口②② |①---|
口口口口 |②---|
口口口口
口口①①

③口口口
口口④口
口⑤口口 |③-④-|
口口口⑥ |⑤-⑥-|
25
口①②③ |①---|
①④口口 |②---|
②口⑤口 |③---|
③口口口 |④-⑤-|
26
⑥③①⑤ |①-②-|
口⑦④② |③-④-|
②④⑦口 |⑤-⑥-|
⑤①③⑥ |⑦---|
27
③口②口 |①---|
①口④② |②---|
口⑤口① |③-④-|
口口⑥③ |⑤-⑥-|
28
⑤②⑦④ |①-②-|
口⑥口⑧ |③-④-|
①口③口 |⑤-⑥-|
口⑦口⑤ |⑦-⑧-|
29
口④口口 |①-②-|
③口③口 |③-④-|
②口②口
①口①口

⑥口⑧⑦
口口口口
⑧口口口 |⑤-⑥-|
⑦口口⑤ |⑦-⑧-|
30
⑥③口口 |①-②-|
③①④口 |③-④-|
⑦④②口 |⑤-⑥-|
口口口⑤ |⑦---|
31
⑦①⑥口 |①---|
口⑤②口 |②-③-|
⑥③⑦① |④-⑤-|
②口口④ |⑥-⑦-|
32
口①③① |①---|
②④②口 |②---|
口口⑤口 |③-④-|
口⑥口口 |⑤-⑥-|
33
②②口口 |①---|
口口①① |②---|
③⑤口口 |③---|
③口④④ |④-⑤-|
34
④⑦②⑤ |①-②-|
口③口① |③-④-|
⑧口⑥口 |⑤-⑥-|
口口口口 |⑦-⑧-|
35
口口①口 |①-②③|
⑧②口⑤ |④-⑤⑥|
⑨③口⑥ |⑦-⑧⑨|
⑩④口⑦ |⑩---|
36
②⑤⑤① |①-②-|
口②①⑧ |③-④-|
口④③⑦ |⑤-⑥-|
口④③⑥ |⑦-⑧-|
37
①②口② |①---|
口口口④ |②---|
①口口口 |③---|
③口③④ |④---|
38
①②③口 |①-②-|
口⑥⑤④ |③---|
口①②③ |④-⑤-|
⑥⑤④口 |⑥---|
39
②①口① |①---|
口口口③ |②---|
②口口口 |③---|
④口④③ |④---|
40
③②①口 |①---|
口口口④ |②---|
⑤①②口 |③-④-|
口口口⑥ |⑤-⑥-|
41
口口口口 |①---|
口①④⑤ |--②-|
口口⑥③ |③-④-|
口口②口 |⑤-⑥-|
42
④③②① |①---|
口口口口 |②---|
口口口口 |③---|
口口口口 |④---|
43
口口口口 |①---|
口⑥③口 |②---|
口④⑤口 |③-④-|
②口口① |⑤-⑥-|
44
口口口① |①---|
口口口口 |----|
口口口口
口口口口

口口口⑤
口④口口
口口③口 |②-③-|
②口口口 |④-⑤-|
45
①④⑥⑨ |①-②③|
口口③⑧ |④-⑤-|
②⑤⑦⑩ |⑥-⑦⑧|
口口口口 |⑨-⑩-|
46
口口口口 |①-②③|
①④⑥⑨ |④-⑤-|
口③⑧口 |⑥-⑦⑧|
②⑤⑦⑩ |⑨-⑩-|
47
口⑥口① |①-②③|
⑨③④口 |④-⑤-|
⑧⑦口② |⑥-⑦⑧|
口口⑤⑩ |⑨-⑩-|
48
⑥⑥①⑦ |①-②③|
口②⑦① |④-⑤-|
⑧⑧⑤③ |⑥-⑦-|
④④⑨⑨ |⑧-⑨-|
49
口口口口 |①-②③|
①④⑥⑨ |④-⑤-|
口口③⑧ |⑥-⑦⑧|
②⑤⑦⑩ |⑨-⑩-|
50
①④⑥⑨ |①-②③|
口③⑧口 |④-⑤-|
②⑤⑦⑩ |⑥-⑦⑧|
口口口口 |⑨-⑩-|
51
口③④口 |①-②③|
口⑥口① |④-⑤-|
⑦⑩⑤⑧ |⑥-⑦⑧|
⑨口口② |⑨-⑩-|
52
②口口① |①---|
口口①口 |②-③-|
口口口口
口口口③

口④④口
口口⑥⑤
⑥口⑦⑤ |④-⑤-|
口口⑦口 |⑥-⑦-|
53
⑤⑤⑦⑩ |①②③④|
①②口⑨ |⑤-⑥-|
口⑥⑧⑪ |⑦-⑧⑨|
③④口口 |⑩-⑪-|
54
口口口口 |①-②③|
①④⑥⑨ |④-⑤-|
口③⑧口 |⑥-⑦⑧|
②⑤⑦⑩ |⑨-⑩-|
55
口⑥口① |①-②③|
⑨③④口 |④-⑤-|
⑧⑦口② |⑥-⑦⑧|
口口⑤⑩ |⑨-⑩-|
56
⑥⑥①⑦ |①-②③|
口②⑦① |④-⑤-|
⑧⑧⑤③ |⑥-⑦-|
④④⑨⑨ |⑧-⑨-|
57
口口口口 |①-②③|
①④⑥⑨ |④-⑤-|
口口③⑧ |⑥-⑦⑧|
②⑤⑦⑩ |⑨-⑩-|
58
①④⑥⑨ |①-②③|
口③⑧口 |④-⑤-|
②⑤⑦⑩ |⑥-⑦⑧|
口口口口 |⑨-⑩-|
59
口③④口 |①-②③|
口⑥口① |④-⑤-|
⑦⑩⑤⑧ |⑥-⑦⑧|
⑨口口② |⑨-⑩-|
60
③⑤⑤① |①-②-|
口口①⑥ |③-④-|
⑦口口⑥ |⑤-⑥-|
⑦②⑧④ |⑦-⑧-|
61
口③③口 |①-②-|
④⑤②口 |③-④⑤|
口③③口
口①口②

⑥口口口
口口⑪口
⑩口口⑦ |-⑥-⑦|
口⑨⑧口 |⑧⑨⑩⑪|
62
口⑨⑧⑦ |-①②③|
⑥⑬⑩③ |-④⑤⑥|
口⑤②口 |-⑦⑧⑨|
④⑪⑫① |⑩⑪⑫⑬|
63
③口口口 |①-②-|
口口口② |③-④⑤|
口口⑤④
口口口①

口口口⑥
⑦⑧⑨口
口口口口 |-⑥-⑦|
口口口⑩ |⑧⑨-⑩|
64
③⑥口口 |-①②③|
口口口口 |-④⑤⑥|
口②⑤口
①④口口

口口⑨口
口口⑪口
口口口⑧ |-⑦⑧⑨|
⑩口⑦⑪ |-⑩-⑪|
65
口口口② |①---|
③④口口 |②-③④|
①①口口
口口口口

⑤口口口
口口⑩口
⑨口口⑥ |-⑤-⑥|
口⑧⑦口 |⑦⑧⑨⑩|
66
口⑨⑧⑦ |-①②③|
⑥⑬⑩③ |-④⑤⑥|
口⑤②口 |-⑦⑧⑨|
④⑪⑫① |⑩⑪⑫⑬|
67
③口口口 |①-②-|
口口口② |③-④⑤|
口口⑤④
口口口①

口口口⑥
⑦⑧⑨口
口口口口 |-⑥-⑦|
口口口⑩ |⑧⑨-⑩|
68
③⑥口口 |-①②③|
口口口口 |-④⑤⑥|
口②⑤口
①④口口

口口⑨口
口口口⑪
口口口⑧ |-⑦⑧⑨|
⑩口⑦⑪ |-⑩-⑪|
69
口口口③ |①-②-|
④⑤②口 |③-④⑤|
①③③口
口口口口

⑥口口口
口口⑪口
⑩口口⑦ |-⑥-⑦|
口⑨⑧口 |⑧⑨⑩⑪|
70
口⑨⑧⑦ |-①②③|
⑥⑬⑩③ |-④⑤⑥|
口⑤②口 |-⑦⑧⑨|
④⑪⑫① |⑩⑪⑫⑬|
71
③口口口 |①-②-|
口口口② |③-④⑤|
口口⑤④
口口口①

口口口⑥
⑦⑧⑨口
口口口口 |-⑥-⑦|
口口口⑩ |⑧⑨-⑩|
72
③⑥口口 |-①②③|
口口口口 |-④⑤⑥|
口②⑤口
①④口口

口口⑨口
口口⑪口
口口口⑧ |-⑦⑧⑨|
⑩口⑦⑪ |-⑩-⑪|
73
口口口② |①---|
③④口口 |②-③④|
①①口口
口口口口

⑤口口口
口口⑩口
⑨口口⑥ |-⑤-⑥|
口⑧⑦口 |⑦⑧⑨⑩|
74
口⑨⑧⑦ |-①②③|
⑥⑬⑩③ |-④⑤⑥|
口⑤②口 |-⑦⑧⑨|
④⑪⑫① |⑩⑪⑫⑬|
75
③口口口 |①-②-|
口口口② |③-④⑤|
口口⑤④
口口口①

口口口⑥
⑦⑧⑨口
口口口口 |-⑥-⑦|
口口口⑩ |⑧⑨-⑩|
76
③⑥口口 |-①②③|
口口口口 |-④⑤⑥|
口②⑤口
①④口口

口口⑨口
口口口⑪
口口口⑧ |-⑦⑧⑨|
⑩口⑦⑪ |-⑩-⑪|

accuracy: 100%
最終更新:2023年10月19日 18:33