アットウィキロゴ
†渚のリベンジΣ脈あり!?バケェ~ション†
とろピカるサマー☆Prim

BASIC

Level: 4
BPM: 190
Notes: 375

1
口口口口 |----|
口口口口 |----|
口口口口 |----|
口口口口 |----|
2
②口口② |①---|
口③口口 |②---|
口口口口 |----|
①口口① |③---|
3
口②②口 |①---|
口口口口 |②---|
口口③口 |----|
口①①口 |③---|
4
④口口④ |①---|
③口口③ |②---|
②口口② |③---|
①口口① |④---|
5
口④④口 |①---|
口③③口 |②---|
口②②口 |③---|
口①①口 |④---|
6
口口口口 |①---|
口口口口 |②---|
③④口口 |③---|
口口②① |④---|
7
口口口口 |①---|
口③②① |②---|
口口口口 |③---|
口口口口 |----|
8
口口②① |①---|
③④口口 |②---|
口口口口 |③---|
口口口口 |④---|
9
口口口口 |①---|
口口口口 |②---|
④口②口 |③---|
口③口① |④---|
10
口口口① |①---|
口口口② |②---|
④口口口 |③---|
③口口口 |④---|
11
口口①口 |①---|
口②口口 |②---|
口口③口 |③---|
口④口口 |④---|
12
口口口① |①---|
②口口口 |②---|
口口口③ |③---|
④口口口 |④---|
13
口口口口 |①---|
口①①口 |----|
口口口口 |----|
口口口口 |----|
14
口口口口 |①---|
口口口口 |②---|
口口④③ |③---|
①②口口 |④---|
15
口口口口 |①---|
①②③口 |②---|
口口口口 |③---|
口口口口 |----|
16
①②口口 |①---|
口口④③ |②---|
口口口口 |③---|
口口口口 |④---|
17
口口口口 |①---|
口口口口 |②---|
口②口④ |③---|
①口③口 |④---|
18
①口口口 |①---|
②口口口 |②---|
口口口④ |③---|
口口口③ |④---|
19
口①口口 |①---|
口口②口 |②---|
口③口口 |③---|
口口④口 |④---|
20
口口口④ |①---|
③口口口 |②---|
口口口② |③---|
①口口口 |④---|
21
口口口口 |①---|
口②②口 |----|
口①①口 |②---|
口口口口 |----|
22
①口②口 |①---|
口③口④ |②---|
口口口口 |③---|
口口口口 |④---|
23
口口口口 |----|
口口口口 |①---|
③口口口 |②---|
口①口② |③---|
24
口口口口 |①---|
口②①口 |②---|
口④③口 |③---|
口口口口 |④---|
25
口口口口 |①---|
口口口③ |②---|
口口口② |③---|
口口①口 |----|
26
①口口口 |①---|
口口②口 |②---|
口③口口 |③---|
口口口④ |④---|
27
口口口① |①---|
口②口口 |②---|
口口③口 |③---|
④口口口 |④---|
28
口③③口 |①---|
②②①① |--②-|
口口口口 |----|
口口口口 |③---|
29
②口口② |--①-|
口口口口 |----|
口口③口 |②---|
口①①口 |③---|
30
口口口口 |①---|
①②④③ |②---|
①②④③ |③---|
口口口口 |④---|
31
口③口口 |----|
口口口口 |①---|
口口口口 |②---|
①口口② |③---|
32
口口口口 |①---|
③④②① |②---|
③④②① |③---|
口口口口 |④---|
33
②口口① |----|
口口口口 |①---|
口口口口 |②---|
口口③口 |③---|
34
口④口口 |①---|
口③口口 |②---|
口②口口 |③---|
口①口口 |④---|
35
口口①口 |①---|
口口②口 |②---|
口口③口 |③---|
口口口口 |----|
36
②口口① |①---|
④口口③ |②---|
口口口口 |③---|
口口口口 |④---|
37
口口口口 |①---|
口口口口 |②---|
②口口① |③---|
口口③口 |----|
38
口口口口 |①---|
③④②① |②---|
③④②① |③---|
口口口口 |④---|
39
④口口③ |①---|
口口口口 |②---|
口口口口 |③---|
②口口① |④---|
40
口口口口 |①---|
③④②① |②---|
③④②① |③---|
口口口口 |④---|
41
口口②① |①---|
口口口口 |②---|
口口口口 |③---|
③④口口 |④---|
42
口口口口 |①---|
口口④① |②---|
口口②口 |③---|
口口口③ |④---|
43
口口口口 |①---|
①口口口 |②---|
口②口口 |③---|
③口口口 |----|
44
口口①口 |①---|
口②口口 |②---|
口口③口 |③---|
口④口口 |④---|
45
口口口口 |①---|
③③①① |----|
②②口口 |②---|
口口口口 |③---|
46
①①口口 |①---|
口口口口 |----|
口口口口 |----|
口口口口 |----|
47
口口口口 |①---|
口口口口 |②---|
口口口口 |③---|
④③②① |④---|
48
口口口口 |①---|
口口口口 |②---|
①②③④ |③---|
口口口口 |④---|
49
口口口口 |①---|
④③②① |②---|
口口口口 |③---|
口口口口 |④---|
50
口②②口 |①---|
口口口口 |--②-|
口①①口 |----|
③口口③ |--③-|
51
口口口口 |----|
①口口① |--①-|
口口口口 |----|
口口口口 |----|
52
口口口口 |①---|
口②②口 |--②-|
③口口③ |----|
口①①口 |--③-|
53
①口口① |----|
口口口口 |--①-|
口口口口 |----|
口口口口 |----|
54
口③口口 |①---|
②口口口 |②---|
口①①口 |③---|
口口口口 |----|
55
口口口口 |①---|
口口③口 |②---|
口口口② |③---|
口口①口 |----|
56
口口口口 |①---|
②②口口 |----|
①①口口 |②---|
口口口口 |----|
57
①①口口 |①---|
口口口口 |----|
口口口口 |----|
口口口口 |----|
58
口口口口 |①---|
④口口① |②---|
②口口③ |③---|
口口口口 |④---|
59
口口口口 |----|
口③口口 |①---|
口口②口 |②---|
口①口口 |③---|
60
口口口口 |①---|
口口口口 |----|
口口②② |②---|
口口①① |----|
61
口口口口 |①---|
口口①① |----|
口口口口 |----|
口口口口 |----|
62
①口口口 |①---|
口口口口 |----|
口②口口 |②---|
口口口口 |----|
63
口口口② |①---|
口口①口 |----|
口口口口 |②---|
口口口口 |----|
64
口口口口 |①---|
①②④③ |②---|
①②④③ |③---|
口口口口 |④---|
65
口③口口 |----|
口口口口 |①---|
口口口口 |②---|
①口口② |③---|
66
口口口口 |①---|
③④②① |②---|
③④②① |③---|
口口口口 |④---|
67
②口口① |----|
口口口口 |①---|
口口口口 |②---|
口口③口 |③---|
68
口④口口 |①---|
口③口口 |②---|
口②口口 |③---|
口①口口 |④---|
69
口口①口 |①---|
口口②口 |②---|
口口③口 |③---|
口口口口 |----|
70
②口口① |①---|
④口口③ |②---|
口口口口 |③---|
口口口口 |④---|
71
口口口口 |①---|
口口口口 |②---|
②口口① |③---|
口口③口 |----|
72
口口口口 |①---|
③④②① |②---|
③④②① |③---|
口口口口 |④---|
73
④口口③ |①---|
口口口口 |②---|
口口口口 |③---|
②口口① |④---|
74
口口口口 |①---|
③④②① |②---|
③④②① |③---|
口口口口 |④---|
75
口口②① |①---|
口口口口 |②---|
口口口口 |③---|
③④口口 |④---|
76
口口口口 |①---|
口口④① |②---|
口口②口 |③---|
口口口③ |④---|
77
口口口口 |①---|
①口口口 |②---|
口②口口 |③---|
③口口口 |----|
78
口口①口 |①---|
口②口口 |②---|
口口③口 |③---|
口④口口 |④---|
79
口口口口 |①---|
③③①① |----|
②②口口 |②---|
口口口口 |③---|
80
①①口口 |①---|
口口口口 |----|
口口口口 |----|
口口口口 |----|
81
口口口口 |①---|
口口口口 |②---|
口口口口 |③---|
④③②① |④---|
82
口口口口 |①---|
口口口口 |②---|
①②③④ |③---|
口口口口 |④---|
83
口口口口 |①---|
④③②① |②---|
口口口口 |③---|
口口口口 |④---|
84
口②②口 |①---|
口口口口 |--②-|
口①①口 |----|
③口口③ |--③-|
85
口口口口 |----|
①口口① |--①-|
口口口口 |----|
口口口口 |----|
86
口口口口 |①---|
口②②口 |--②-|
③口口③ |----|
口①①口 |--③-|
87
①口口① |----|
口口口口 |--①-|
口口口口 |----|
口口口口 |----|
88
口口口口 |①---|
口③③口 |--②-|
口②②口 |----|
口①①口 |③---|
89
②②②② |--①-|
口口口口 |----|
口口口口 |②---|
①口口① |----|

accuracy: 100%
最終更新:2023年07月30日 04:45