アットウィキロゴ
†渚のリベンジΣ脈あり!?バケェ~ション†
とろピカるサマー☆Prim

ADVANCED

Level: 7
BPM: 190
Notes: 601

1
口口口口 |----|
口口口口 |----|
口口口口 |----|
口口口口 |----|
2
①①⑥⑥ |①-②-|
⑤⑤②② |③---|
③③④④ |--④-|
口口口口 |⑤-⑥-|
3
①①⑥⑥ |①-②-|
⑤⑤②② |③---|
③③④④ |--④-|
口口口口 |⑤-⑥-|
4
口口⑤⑤ |①-②-|
口口③③ |--③-|
口口④④ |--④-|
①①②② |--⑤-|
5
③③口口 |①-②-|
①①④④ |--③-|
⑤⑤口口 |--④-|
口口②② |⑤---|
6
⑧⑦⑥⑤ |①-②-|
口口口口 |③-④-|
口口口口 |⑤-⑥-|
④③②① |⑦-⑧-|
7
口口口⑤ |①-②-|
口④①口 |③-④-|
口②③口 |--⑤-|
⑥口口口 |⑥---|
8
口口口口 |①-②-|
⑧⑦⑥⑤ |③-④-|
④③②① |⑤-⑥-|
口口口口 |⑦-⑧-|
9
④口口③ |①---|
口口口口 |②---|
口口口口 |③---|
②口口① |④---|
10
口口口口 |①---|
口②①④ |②---|
口①②口 |③---|
口③口口 |④---|
11
口①口口 |①-②-|
口口②⑤ |③-④-|
口③口口 |--⑤-|
口口④⑥ |--⑥-|
12
①②③④ |--①-|
口口口口 |②-③-|
口⑤⑥口 |④-⑤-|
口口口口 |⑥---|
13
口口口口 |①---|
①口口口 |----|
口口口口 |----|
口口口口 |----|
14
口口口口 |①-②-|
口②③口 |③---|
口口口① |④-⑤-|
④⑤⑥⑦ |⑥-⑦-|
15
口①口④ |①-②-|
口口②口 |③-④-|
⑤③⑥口 |--⑤-|
口⑦口口 |⑥-⑦-|
16
口口①① |----|
②②口口 |①---|
口口③③ |②---|
口口口口 |③---|
17
①①③③ |①---|
口口口口 |②---|
②②④④ |③---|
口口口口 |④---|
18
口口口口 |①---|
口②②口 |②---|
④口口④ |③---|
③①①③ |④---|
19
口口口⑤ |①-②-|
①口口① |③-④-|
口②⑥口 |--⑤-|
口④③口 |⑥---|
20
口口口口 |--①-|
①②③④ |②-③-|
口口口口 |④-⑤-|
⑤⑥⑦口 |⑥-⑦-|
21
口④口口 |①---|
口口③口 |----|
口②口口 |--②-|
口口口① |③-④-|
22
口口①① |①---|
口口口口 |----|
口口口口 |②---|
②②口口 |----|
23
④口③口 |--①-|
口②口⑤ |②-③-|
⑥口①口 |④-⑤-|
口口口⑦ |⑥-⑦-|
24
口④口④ |①---|
③口③口 |②---|
口②口② |③---|
①①口口 |④---|
25
③口③口 |①---|
口口口口 |②---|
口②②口 |③---|
口①①口 |----|
26
口口口口 |①-②-|
⑤③⑥② |③-④-|
口⑦④口 |⑤-⑥-|
①口口⑧ |⑦-⑧-|
27
口①②口 |①-②-|
⑤口口⑥ |③-④-|
口⑦⑧口 |⑤-⑥-|
口③④口 |⑦-⑧-|
28
口①①口 |①---|
口口③口 |--②-|
口③口口 |----|
②口口② |③---|
29
口①口② |--①-|
口⑤口② |----|
②口④口 |②-③-|
②口①③ |④-⑤-|
30
②口①口 |①-②-|
④口③口 |③-④-|
口⑥口⑤ |⑤-⑥-|
口⑧口⑦ |⑦-⑧-|
31
口口④口 |--①-|
⑤①口口 |②-③-|
口口②⑥ |④-⑤-|
③⑦口口 |⑥-⑦-|
32
口②口① |①-②-|
口④口③ |③-④-|
⑥口⑤口 |⑤-⑥-|
⑧口⑦口 |⑦-⑧-|
33
口①口口 |--①-|
⑦口②⑥ |②-③-|
⑤③口④ |④-⑤-|
口口口口 |⑥-⑦-|
34
口口①① |--①-|
口④③口 |--②-|
口⑥⑤口 |③-④-|
口②口口 |⑤-⑥-|
35
④口⑤口 |①-②-|
口口口③ |③-④-|
②口口口 |⑤---|
口口口① |----|
36
⑥口口口 |--①-|
口②口⑤ |--②-|
④口③口 |③-④-|
口口①① |⑤-⑥-|
37
口②①口 |①-②-|
口口⑤口 |③-④-|
口口口口 |⑤---|
口④③口 |----|
38
口①口② |①-②-|
口③口④ |③-④-|
⑤口⑥口 |⑤-⑥-|
⑦口⑧口 |⑦-⑧-|
39
口④口口 |--①-|
口口①⑤ |②-③-|
⑥②口口 |④-⑤-|
口口⑦③ |⑥-⑦-|
40
①口②口 |①-②-|
③口④口 |③-④-|
口⑤口⑥ |⑤-⑥-|
口⑦口⑧ |⑦-⑧-|
41
口口①口 |--①-|
⑥②口⑦ |②-③-|
④口③⑤ |④-⑤-|
口口口口 |⑥-⑦-|
42
口口口① |--①-|
口④⑤口 |②-③-|
口⑥⑦口 |④-⑤-|
口②③口 |⑥-⑦-|
43
口⑤口④ |①-②-|
③口口口 |③-④-|
口口口② |⑤---|
①口口口 |----|
44
④口口口 |--①-|
口口③⑤ |②-③-|
⑥②口口 |④-⑤-|
口口①⑦ |⑥-⑦-|
45
口①①口 |①---|
口③②口 |----|
口口口口 |②---|
口②③口 |③---|
46
①口口① |①---|
口口口口 |----|
口①①口 |----|
口口口口 |----|
47
⑦口口② |①-②-|
⑤口口④ |③-④-|
③口口⑥ |⑤-⑥-|
①口口⑧ |⑦-⑧-|
48
口①⑧口 |①-②-|
口③⑥口 |③-④-|
口⑤④口 |⑤-⑥-|
口⑦②口 |⑦-⑧-|
49
⑦口口② |①-②-|
⑤口口④ |③-④-|
③口口⑥ |⑤-⑥-|
①口口⑧ |⑦-⑧-|
50
⑥⑥口口 |①-②-|
口④①口 |③-④-|
口②③口 |--⑤-|
⑤⑤口口 |--⑥-|
51
口口②② |--①-|
口③口口 |--②-|
口口口④ |--③-|
口⑤①① |④-⑤-|
52
⑥⑥口口 |①-②-|
④口口① |③-④-|
⑤⑤口口 |--⑤-|
②口口③ |--⑥-|
53
口口口口 |--①-|
口③②② |--②-|
口⑤④口 |--③-|
口口①① |④-⑤-|
54
口口①① |①---|
口口口口 |----|
口口口口 |②---|
②②口口 |----|
55
④口③口 |--①-|
口②口⑤ |②-③-|
⑥口①口 |④-⑤-|
口口口⑦ |⑥-⑦-|
56
口口口口 |①---|
②③②③ |----|
口口口口 |②---|
①①口口 |--③-|
57
②口②口 |①---|
口口口口 |----|
口口口口 |②---|
①口①口 |----|
58
口口口口 |①-②-|
⑤③⑥② |③-④-|
口⑦④口 |⑤-⑥-|
①口口⑧ |⑦-⑧-|
59
口口①口 |--①-|
④口口⑤ |②-③-|
口⑥⑦口 |④-⑤-|
口②③口 |⑥-⑦-|
60
口①①口 |①---|
口口③口 |--②-|
口③口口 |----|
②口口② |③---|
61
口①口② |--①-|
③③口② |----|
②口③③ |②---|
②口①口 |③---|
62
口口口口 |----|
口口口口 |----|
口口口口 |①---|
口口口① |----|
63
口口口口 |①---|
口②口口 |----|
口口①口 |②---|
口口口口 |----|
64
②口①口 |①-②-|
④口③口 |③-④-|
口⑥口⑤ |⑤-⑥-|
口⑧口⑦ |⑦-⑧-|
65
口口④口 |--①-|
⑤①口口 |②-③-|
口口②⑥ |④-⑤-|
③⑦口口 |⑥-⑦-|
66
口②口① |①-②-|
口④口③ |③-④-|
⑥口⑤口 |⑤-⑥-|
⑧口⑦口 |⑦-⑧-|
67
口①口口 |--①-|
⑦口②⑥ |②-③-|
⑤③口④ |④-⑤-|
口口口口 |⑥-⑦-|
68
口口①① |--①-|
口④③口 |--②-|
口⑥⑤口 |③-④-|
口②口口 |⑤-⑥-|
69
④口⑤口 |①-②-|
口口口③ |③-④-|
②口口口 |⑤---|
口口口① |----|
70
⑦口口口 |--①-|
口③口⑥ |②-③-|
⑤口④口 |④-⑤-|
①口口② |⑥-⑦-|
71
口②①口 |①-②-|
口口⑤口 |③-④-|
口口口口 |⑤---|
口④③口 |----|
72
口①口② |①-②-|
口③口④ |③-④-|
⑤口⑥口 |⑤-⑥-|
⑦口⑧口 |⑦-⑧-|
73
口④口口 |--①-|
口口①⑤ |②-③-|
⑥②口口 |④-⑤-|
口口⑦③ |⑥-⑦-|
74
①口②口 |①-②-|
③口④口 |③-④-|
口⑤口⑥ |⑤-⑥-|
口⑦口⑧ |⑦-⑧-|
75
口口①口 |--①-|
⑥②口⑦ |②-③-|
④口③⑤ |④-⑤-|
口口口口 |⑥-⑦-|
76
⑥口口① |--①-|
口④⑤口 |②-③-|
口口口口 |④-⑤-|
口②③口 |⑥---|
77
口⑤口④ |①-②-|
③口口口 |③-④-|
口口口② |⑤---|
①口口口 |----|
78
④口口口 |--①-|
口口③⑤ |②-③-|
⑥②口口 |④-⑤-|
口口①⑦ |⑥-⑦-|
79
口①①口 |①---|
口③②口 |----|
口口口口 |②---|
口②③口 |③---|
80
①口口① |①---|
口口口口 |----|
口①①口 |----|
口口口口 |----|
81
⑦口口② |①-②-|
⑤口口④ |③-④-|
③口口⑥ |⑤-⑥-|
①口口⑧ |⑦-⑧-|
82
口①⑧口 |①-②-|
口③⑥口 |③-④-|
口⑤④口 |⑤-⑥-|
口⑦②口 |⑦-⑧-|
83
⑦口口② |①-②-|
⑤口口④ |③-④-|
③口口⑥ |⑤-⑥-|
①口口⑧ |⑦-⑧-|
84
⑥⑥口口 |①-②-|
口④①口 |③-④-|
口②③口 |--⑤-|
⑤⑤口口 |--⑥-|
85
口口②② |--①-|
口③口口 |--②-|
口口口④ |--③-|
口⑤①① |④-⑤-|
86
⑥⑥口口 |①-②-|
④口口① |③-④-|
⑤⑤口口 |--⑤-|
②口口③ |--⑥-|
87
口口口口 |--①-|
口③②② |--②-|
口口④口 |--③-|
口⑤①① |④-⑤-|
88
②②①① |①---|
口口口口 |--②-|
口口口③ |----|
口口③口 |③---|
89
④口③口 |--①-|
口②①口 |②-③-|
口①②口 |④---|
口③口④ |----|

accuracy: 100%
最終更新:2023年07月30日 04:57