アットウィキロゴ
†渚のリベンジΣ脈あり!?バケェ~ション†
とろピカるサマー☆Prim

EXTREME

Level: 10.3
BPM: 190
Notes: 906

1
口口口口 |----|
口口口口 |----|
口口口口 |----|
口口口口 |----|
2
口④②③ |①---|
④②③口 |②---|
口②①⑤ |--③-|
口①②⑤ |④-⑤-|
3
口⑤③④ |①-②-|
⑤③④③ |③---|
①口②⑥ |--④-|
①②⑥口 |⑤-⑥-|
4
②口④口 |①-②-|
⑤④⑤④ |--③-|
②①④口 |--④-|
①③口③ |--⑤-|
5
③③口② |①-②-|
口⑤口④ |--③-|
③①⑥口 |--④-|
②⑤①④ |⑤-⑥-|
6
口口口⑤ |①-②-|
①口⑥口 |③-④-|
⑧②口⑦ |⑤-⑥-|
③口④口 |⑦-⑧-|
7
口口④口 |①-②-|
口①⑦⑥ |③-④-|
口③②口 |⑤-⑥-|
⑤口⑦⑥ |⑦---|
8
①口口④ |①-②-|
口②口口 |③-④-|
③口口口
口口口口

⑧口⑥口
口口口口
口⑤口⑦ |⑤-⑥-|
口口口口 |⑦-⑧-|
9
口③口④ |①---|
③①③口 |②---|
口③②④ |③---|
①②①② |④---|
10
①③①口 |①---|
口①口③ |②---|
②④②口 |③---|
口②口④ |④---|
11
口口口② |①-②-|
①③口④ |③-④-|
③口④②
①口口口

口⑤⑤口
口口口口
口口口口 |--⑤-|
⑥口口⑥ |--⑥-|
12
⑥⑥口口 |--①-|
①⑥口口 |②-③-|
口②⑤口 |④-⑤-|
口④③口 |⑥---|
13
口口①① |①---|
②⑥①③ |②---|
③口⑤② |③-④-|
②④口③ |⑤-⑥-|
14
口①⑥④ |--①-|
①口④⑥ |②---|
⑤③口② |③-④-|
③⑤②口 |⑤-⑥-|
15
④口口口 |①-②-|
④①⑤口 |③-④-|
口⑥②口 |--⑤-|
口口⑦③ |⑥-⑦-|
16
口③③① |①---|
口④口口 |②---|
③④②③ |③---|
④②④② |④---|
17
①③③① |①---|
①④②① |②---|
③④②③ |③---|
④②④② |④---|
18
口④口① |①---|
口口口口 |②---|
③口②口 |③---|
口口口口 |④---|
19
④口口口 |①-②-|
口口③⑤ |③-④-|
口②⑥口 |--⑤⑥|
口⑦口① |⑦---|
20
⑤⑦⑤⑦ |①-②-|
②③④口 |③-④-|
⑧⑥⑧⑥ |⑤-⑥-|
口口口① |⑦-⑧-|
21
口⑧④⑦ |①-②-|
③⑤④② |③-④-|
口⑤口⑥ |⑤-⑥-|
③①口② |⑦-⑧-|
22
口口口口 |①-②-|
口⑦⑥⑤ |③-④-|
口④⑧口 |⑤-⑥-|
③②①口 |⑦-⑧-|
23
④口口口 |--①-|
口⑤口③ |②-③-|
②⑥口口 |④-⑤-|
⑦口口① |⑥-⑦-|
24
口⑤⑧口 |①-②-|
口口③④ |③-④-|
口口①② |⑤-⑥-|
口⑦⑥口 |⑦-⑧-|
25
③口口④ |①---|
①③④口 |②-③-|
①⑤⑥② |④-⑤-|
①⑤⑥口 |⑥---|
26
口⑦⑥⑤ |①-②-|
③口⑧口 |③-④-|
②口口④ |⑤-⑥-|
①口口口 |⑦-⑧-|
27
口口口⑧ |①-②-|
⑦③口口 |③-④-|
口②④⑥ |⑤-⑥-|
⑤①口口 |⑦-⑧-|
28
①⑤③口 |①---|
⑤④①③ |②-③-|
③①②⑤ |--④-|
口③⑤① |⑤---|
29
②口口② |①-②-|
口口①口 |----|
⑥③③⑤ |③-④-|
③④口③ |⑤-⑥-|
30
③④①② |①-②-|
④③②① |③-④-|
⑦⑧⑤⑥ |⑤-⑥-|
⑧⑦⑥⑤ |⑦-⑧-|
31
④②口① |--①-|
口口③⑤ |②-③-|
⑥口口口 |④-⑤-|
口口口⑦ |⑥-⑦-|
32
⑤③③⑤ |①-②-|
⑥④④⑥ |③-④-|
⑧②②⑧ |⑤-⑥-|
⑦①①⑦ |⑦-⑧-|
33
口①口口 |--①-|
⑤②口口 |②-③-|
口③⑥口 |④-⑤-|
⑦口④口 |⑥-⑦-|
34
口④①① |①-②-|
口口口① |③-④-|
④口口③
口②口口

口口口口
⑦⑤⑤⑧
口⑥⑧口 |⑤-⑥-|
⑦口⑥⑧ |⑦-⑧-|
35
①④①③ |①-②-|
口⑤⑤口 |③-④-|
④口口③ |⑤---|
口②⑦⑥ |⑥-⑦-|
36
④口②口 |①-②-|
口⑤⑥② |--③-|
⑦口④口 |④-⑤-|
③①口口 |⑥-⑦-|
37
口④②口 |①-②-|
④口口② |③-④-|
口口口口
③口口①

⑦口口⑥
口⑦⑥口
口⑤⑤口 |⑤-⑥-|
口口口⑧ |⑦-⑧-|
38
⑧③①⑤ |①-②-|
④⑥⑦② |③-④-|
②⑦⑥④ |⑤-⑥-|
⑤①③⑧ |⑦-⑧-|
39
口⑤⑥口 |--①-|
⑦口口④ |②-③-|
②口口口 |④-⑤-|
③口①口 |⑥-⑦-|
40
⑧⑦⑥⑤ |①-②-|
⑦⑧⑤⑥ |③-④-|
④②②④ |⑤-⑥-|
③①①③ |⑦-⑧-|
41
⑦口④口 |--①-|
口⑦口④ |②-③-|
口⑤②⑥ |④-⑤-|
⑤①⑥③ |⑥-⑦-|
42
口⑥口① |①-②-|
⑤口⑦口 |③-④-|
②⑧④口 |⑤-⑥-|
口③口口 |⑦-⑧-|
43
②口①① |①-②-|
⑥②口⑤ |③-④-|
④口⑤⑦ |⑤---|
口④③③ |⑥-⑦-|
44
口④⑤④ |--①-|
口⑥⑦⑥ |②-③-|
口③口口 |④-⑤-|
①口②口 |⑥-⑦-|
45
口口口口 |①---|
④口④口 |②---|
①③口② |③---|
③①②口 |④---|
46
①口①口 |①---|
口①口口 |----|
①口①口 |----|
口①口口 |----|
47
①②③④ |①②③④|
⑨⑩⑪⑫ |⑤⑥⑦⑧|
⑤⑥⑦⑧ |⑨⑩⑪⑫|
⑬⑭⑮⑯ |⑬⑭⑮⑯|
48
①口④⑤ |①-②-|
⑥⑦⑧口 |③-④-|
②口③口 |⑤-⑥⑦|
⑨口口口 |⑧-⑨-|
49
④口口⑤ |①-②-|
⑥⑦⑧③ |③-④-|
口②口口 |⑤-⑥⑦|
口⑨①口 |⑧-⑨-|
50
⑥③①⑤ |①-②-|
⑤⑥⑤③ |③-④-|
①②④口 |--⑤-|
④口②⑥ |--⑥-|
51
口②②口 |--①-|
③口口① |--②-|
①⑤口④ |--③-|
口①口口 |④-⑤-|
52
③⑤⑤④ |①-②-|
⑤①②⑥ |③-④-|
口⑥⑥口 |--⑤-|
④②①③ |--⑥-|
53
口⑤口④ |--①-|
口①②口 |--②-|
口口口③ |--③-|
②口①口 |④-⑤-|
54
口口口口 |①-②-|
口⑦⑥⑤ |③-④-|
口④⑧口 |⑤-⑥-|
③②①口 |⑦-⑧-|
55
④口口口 |--①-|
口⑤口③ |②-③-|
②⑥口口 |④-⑤-|
⑦口口① |⑥-⑦-|
56
口口口口 |①---|
②口口口 |----|
②口①口 |②---|
口口③口 |--③-|
57
①④④④ |①---|
口①③④ |②-③-|
口②⑤④ |④---|
口口口口 |⑤---|
58
②⑥⑤口 |①-②-|
⑥口③⑤ |③-④-|
⑧口口⑦ |⑤-⑥-|
④⑧⑦① |⑦-⑧-|
59
口口口⑧ |①-②-|
⑦③口口 |③-④-|
口②④⑥ |⑤-⑥-|
⑤口口① |⑦-⑧-|
60
①⑤③口 |①---|
⑤④①③ |②-③-|
③①②⑤ |--④-|
口③⑤① |⑤---|
61
②口口② |①-②-|
口口①口 |----|
④③③④ |③---|
③④④③ |④---|
62
口口口口 |----|
口①口口 |----|
口①口口 |①---|
口口口口 |----|
63
口口口② |①---|
口口①口 |----|
口口①② |②---|
口口①② |----|
64
③①②④ |①-②-|
①③④② |③-④-|
⑦⑤⑥⑧ |⑤-⑥-|
⑤⑦⑧⑥ |⑦-⑧-|
65
④口①⑤ |--①-|
口②③口 |②-③-|
口⑥口口 |④-⑤-|
口口⑦口 |⑥-⑦-|
66
④⑧①⑤ |①-②-|
⑧④⑤① |③-④-|
②⑥③⑦ |⑤-⑥-|
⑥②⑦③ |⑦-⑧-|
67
④口口⑤ |--①-|
⑧口口③ |②-③-|
②口口口 |④-⑤⑥|
⑥⑦口① |⑦-⑧-|
68
口②①口 |--①-|
口①②口 |--②-|
①②①② |--③-|
③口口④ |④---|
69
③口⑤口 |①-②-|
口⑤④⑤ |③-④-|
⑦⑤②⑤ |⑤---|
⑥①口口 |⑥-⑦-|
70
口口⑧② |①-②-|
①⑦③⑥ |③-④-|
口⑤口口 |⑤-⑥-|
口口口④ |⑦-⑧-|
71
①口口③ |①-②-|
⑥口⑦口 |③-④-|
②⑧口④ |⑤-⑥⑦|
口⑤⑤⑨ |⑧-⑨-|
72
口⑦①⑤ |①-②-|
⑧②⑥口 |③-④-|
口⑦③⑤ |⑤-⑥-|
⑧④⑥口 |⑦-⑧-|
73
口口①口 |--①-|
口④口⑤ |②-③-|
口⑥③口 |④-⑤-|
口②⑦口 |⑥-⑦-|
74
⑤②⑦④ |①-②-|
①⑥③⑧ |③-④-|
①⑥③⑧ |⑤-⑥-|
⑤②⑦④ |⑦-⑧-|
75
④①⑤⑤ |--①-|
④⑥②口 |②-③-|
⑧⑧⑦口 |④-⑤⑥|
口③⑦口 |⑦-⑧-|
76
⑤①⑥⑥ |--①-|
⑤口②口 |②-③-|
口口口③ |④-⑤-|
口④口口 |⑥---|
77
口③口口 |①-②-|
⑤①④② |③-④-|
①③②⑦ |⑤---|
口⑤④⑥ |⑥-⑦-|
78
①⑤⑥⑤ |①-②-|
口⑦⑧⑦ |③-④-|
口④口口 |⑤-⑥-|
②口③口 |⑦-⑧-|
79
口口口口 |①---|
④口④口 |②---|
①③口② |③---|
③①②口 |④---|
80
①口①口 |①---|
口①口口 |----|
①口①口 |----|
口①口口 |----|
81
①口⑧④ |①-②-|
口⑤口口 |③-④-|
口口⑥口 |⑤-⑥-|
③⑦口② |⑦-⑧-|
82
口⑤口④ |①-②-|
①口⑧口 |③-④-|
口⑦口② |⑤-⑥-|
③口⑥口 |⑦-⑧-|
83
⑤口④口 |①-②-|
①口口⑧ |③-④-|
⑦口口② |⑤-⑥-|
口③口⑥ |⑦-⑧-|
84
⑥①口④ |①-②-|
③①⑤口 |③-④-|
口⑤②④ |--⑤-|
③口②⑥ |--⑥-|
85
口②①③ |--①-|
②②④① |--②-|
①⑤②② |--③-|
口①②口 |④-⑤-|
86
②⑥⑥口 |①-②-|
④④口① |③-④-|
②口③③ |--⑤-|
口⑤⑤① |--⑥-|
87
⑦⑬⑯⑧ |①②③④|
⑤⑨⑫⑥ |⑤⑥⑦⑧|
③⑪⑩④ |⑨⑩⑪⑫|
①⑮⑭② |⑬⑭⑮⑯|
88
②口口② |①---|
口口口口 |--②-|
①口口口 |----|
③口口③ |③---|
89
②④②④ |--①-|
①②④① |②-③-|
③④③④ |④---|
口③④口 |----|

accuracy: 100%
最終更新:2023年07月30日 05:13