アットウィキロゴ
BPM:150
1
口口口口 |ーーーー|
口口口口 |ーーーー|
口口口口 |ーーーー|
口口口口 |ーーーー|
2
①①口口 |①ー②③|
口⑩⑦④ |④⑤⑥⑦|
⑨⑥③⑪ |⑧⑨⑩⑪|
口⑧⑤② |⑫ーー⑬|

⑫口口⑫ 
口口口口 
口口口口 
⑬口口⑬ 
3
④⑦口口 |ーーーー|
④⑦③② |①ー②ー③ー|
口①⑥⑤ |④ー⑤ー⑥ー|
口①⑨⑧ |⑦ー⑧ー⑨ー|
4
⑤⑤③② |①ー②ー③ー|
④⑤口口 |④ーーー|
①④⑤口 |ーー⑤ー|
①口⑤⑤ |ーー⑥ー|

口口口⑥ 
口口口口 
口口口口 
口口口口 
5
口口⑤⑨ |①ー②ー|
⑩⑥①③ |③ー④ー|
④②⑦⑪ |⑤⑥⑦⑧|
⑫⑧口口 |⑨⑩⑪⑫|
6
②④口口 |①ーー②|
>――① |③ー④ー|
⑤③口口 |⑤ーー⑥|
口口口口 |⑦ー⑧ー|

口口口口 
⑥⑧口口 
口口口口 
口⑦口口 
7
②④口口 |①ーー②|
口口口口 |③ー④ー|
⑤③口口 |⑤ーー⑥|
①口口口 |⑦ー⑧ー|

⑧口口口 
口⑥口⑤ 
>―⑦口
>―⑤口 

口口口口 
口口口口 
口口口口 
口口⑦口 
8
口口口口 |①ーー②|
②口口口 |③ー④ー|
口①①口 |⑤ー⑥⑦|
>――① |⑧ー⑨ー|

⑦口口⑥ 
口⑤⑧口 
⑨⑧口口 
④③⑨⑥
9
口①口④ |①ーー②|
②>―② |③ー④ー|
口>―① |⑤ーー⑥|
④③口口 |⑦ー⑧ー|

⑥口⑧口 
口⑤⑥④
⑧⑦⑤②
口口口口 
10
口①口口 |①ーー②|
②口口口 |③ー④ー|
口口口口 |⑤ーー⑥|
>――① |⑦ー⑧⑨|

⑥口口口
口⑤口⑨
⑧⑦口⑧ 
④③口8 
11
>――① |①ーー②|
口口口口 |③ー④ー|
口口口口 |⑤ーー⑥|
口口口口 |⑦ー⑧ー|

口①口口 
②口口口 
口口口口 
④③口口 

⑥口口⑤
口⑤口口 
>―⑤口 
口口口口 

口口口口 
口>―⑦ 
⑧⑦⑦口 
口口口口
12
口①口口 |①ーー②|
口口口① |ーー③ー|
口口口口 |④ー⑤ー|
>――① |⑥ー⑦ー|

口⑦口口
④③⑤口
⑥⑤⑥口
②口⑦⑤
13
②⑦①③ |ーー①ー②ー|
④②⑤① |③ー④ー⑤ー|
⑥④口③ |⑥ー⑦ー|
口⑥⑦⑤ |ーーーー|
14
口口口④ |①ー②③|
①①⑥口 |ー④ー⑤|
口③②口 |ー⑥ー⑦|
口⑧⑦⑤ |⑧ー⑨⑩|

⑨口口口
口⑩口口
口口口口
口口口口
15
口口⑥⑤ |①ー②ー|
口口口④ |③ー④ー⑤ー|
⑥口①③ |⑥ーー⑦|
②口口口 |ーー⑧ー|

⑦口口口
口⑧口口
口口⑦口
口口口口
16
口①⑦口 |①ーーー|
①⑧③② |ー②ー③|
口⑥⑤口 |ー④ー⑤|
④口②③ |⑥ー⑦⑧|
17
口口口③ |①ーー②|
口口口口 |ーー③ー|
①―<口 |④ーー⑤|
口口②口 |ーー⑥ー|

口口⑤口 
④―<口 
③口口⑥ 
口口口口 
18
口口口④ |①ー②③|
①①⑥口 |ー④ー⑤|
口③②口 |ー⑥ー⑦|
口⑧⑦⑤ |⑧ー⑨⑩|

⑨口口口
口⑩口口
口口口口
口口口口
19
口口③② |①ー②③|
口口⑤④ |④⑤⑥⑦|
口⑦①口 |⑧⑨⑩ー|
⑥⑩⑨⑧ |⑪⑫ーー|

口口口⑫
口口口口
口口口⑪
口口口口
20
口①⑦口 |①ーーー|
①口③② |ー②ー③|
口⑥⑤口 |ー④ー⑤|
④口②③ |⑥ー⑦ー|
21
④①口② |①ーー②|
①口②④ |ーー③ー|
②④口① |④ーーー|
口口①③ |⑤ーーー|

口口⑤口
口口口口
口口口⑤
⑤口口口
22
口口口④ |①ー②③|
①①⑥口 |ー④ー⑤|
口③②口 |ー⑥ー⑦|
口①①⑤ |⑧ー⑨⑩|

⑨口口口
口⑩口口
口口口口
口⑧⑦口
23
⑫②口③ |①ー②③|
⑦口④口 |④⑤⑥ー|
⑩⑧①⑤ |⑦⑧⑨⑩|
⑨口⑥⑪ |⑪ーー⑫ーーーー⑬ー⑭ー|

口口⑬口
口口⑭口
口口口口
口口口口
24
口③口口 |①ー②③|
④⑥口② |ー④ー⑤|
口⑧①口 |ー⑥ー⑦|
⑦⑤口口 |ー⑧ー⑨|

口口口口
口口口⑨
口口口口
口口口口
25
①―<口 |①ーー②|
口口口口 |ーー③④|
口口口口 |⑤ーー⑥|
口口口口 |ーー⑦ー|

②口口口 
>―②口 
口口口口 
口口口口 

口口口口 
口口③口 
口口口口 
口④口口 

口⑤―< 
口口口口 
口口口口 
口口⑤口 

口⑥口口 
口>―⑥
口口口口 
口口口口 

⑦口口口 
口口口⑦
⑦口口口 
口口口口 
26
口口口④ |①ー②③|
①①⑥口 |ー④ー⑤|
口③②口 |ー⑥ー⑦|
口⑧⑦⑤ |⑧ー⑨⑩|

⑨口口口
口⑩口口
口口口口
口口口口
27
口口③② |①ー②③|
口口⑤④ |④⑤⑥⑦|
口⑦①口 |⑧⑨⑩ー|
⑥⑩⑨⑧ |⑪⑫ーー|

口口口⑫ 
口口口口 
口口口⑪ 
口口口口
28
口①⑦口 |①ーーー|
①口③② |ー②ー③|
口⑥⑤口 |ー④ー⑤|
④口②③ |⑥ー⑦ー|

④①口② |①ーー②|
①④②口 |ーー③ー|
②口④① |④ーーー|
口③①口 |⑤ーー⑥|

口口⑤口
口口口口
口口口⑤
⑤口口口

口⑥―<
⑥―<⑥ 
口口口口
口口口口
29
口口口④ |ーー①ー|
口⑤②口 |ー②ーー|
口口口③ |③ーー④|
口口①口 |ー⑤ー⑥|

口⑥口口 
⑥口口口
>―⑥口 
口>―⑥
30
②口口口 |ーー①ー|
口⑥口口 |ー②ーー|
口③③⑤ |③ー④ー|
①口④③ |⑤⑥ー⑦|

>―⑦口
口>―⑦
口口口口
口口口口
31
口②⑤口 |ーー①ー|
⑤④口⑤ |ー②ーー|
口口口口 |③ーー④|
③①口口 |ー⑤ーー|
32
①⑤口④ |①ー②ー③ー|
口口②口 |④ー⑤ー⑥ー|
⑤①④② |ーー⑦ー|
③③⑥⑥ |ーーーー|

口口⑦口 
⑦⑦口⑦ 
口口口口 
口口口口 
33
口①⑦④ |①ーーーー②|
口口口口 |③ーーー|
①口⑥口 |④⑤ー⑥|
⑤口③② |ー⑦ーー|
34
①②口⑤ |①ーー②|
②①口口 |③ー④ー⑤ー|
口④⑥口 |⑥ー⑦⑧|
⑦⑧口③ |ー⑨⑩⑪|

⑨口口口 
口口⑪口 
口口口⑩ 
口口口口 
35
口①⑦口 |①ー②③|
口⑩⑪④ |ー④ー⑤|
②口⑤⑥ |ー⑥ー⑦|
口⑧⑨③ |⑧⑨⑩⑪|
36
①―<口 |①ーー②|
口>―② |ーーーー③ーー④|
口口口口 |⑤ー⑥⑦|
口口口口 |ー⑧ーー|

②③口⑦
⑥口口③
口口⑧⑧
④⑤口口
37
①口④口 |①ーー②|
⑥⑤①③ |③④⑤⑥|
①②⑨⑩ |⑦⑧⑨⑩|
⑦⑧①口 |⑪⑫⑬⑭|

口口口⑫
口口⑬口
⑪⑭口口
口口口口
38
③②⑤口 |①②③④|
⑫④⑩⑥ |⑤⑥⑦⑧|
口⑪⑧⑨ |⑨⑩⑪⑫|
口⑦①口 |⑬⑭⑮⑯|

口⑭口⑬
口口口口
口口口口
⑯口⑮口
39
口口口口 |①ーー②|
口>―① |③ー④⑤|
口口口口 |⑥⑦⑧⑨|
口口口口 |⑩⑪⑫⑬|

③口③口
口口口②
⑤口②口
口④口④

口⑩口口
⑪口⑥⑬
口⑨⑫⑦
口口⑧口
40
④口②① |①②③④|
口③⑥口 |⑤⑥⑦⑧|
⑫⑦口⑤ |⑨⑩⑪⑫|
⑧⑪⑩⑨ |⑬⑭⑮⑯|

口口⑭口 
⑯⑮口⑬ 
口口口口 
口口口口
41
②③口① |①ーーーー②|
⑦⑥口④ |③ーーー|
⑥⑦口① |④⑤ー⑥|
口口⑤口 |ー⑦ーー|
42
④口①① |①ーー②|
③⑤③⑦ |ーーーー|
口口⑥口 |③ー④⑤|
口②口② |⑥⑦⑧⑨|

口⑨⑧口
口口口口
口口口口
口口口口
43
⑪口口⑤ |①②③④|
④⑧⑩口 |⑤⑥⑦⑧|
③⑦口⑨ |⑨⑩ー⑪|
②⑥口① |ー⑫ーー|

口口口口
口口口口
口口口口
口口口⑫
44
⑩②口⑦ |①ー②ー③ー|
口⑨⑧③ |④ー⑤ー⑥ー|
⑥④⑤口 |ーーーー|
①⑥①口 |⑦⑧⑨⑩|
45
口②⑦口 |①ー②③|
③口口⑦ |④ー⑤⑥|
⑧⑥①④ |⑦ー⑧⑨|
⑤⑨④① |⑩⑪ー⑫|

⑫口口⑪
口口口口
口口⑩口
口口口口
46
⑬③⑥⑫ |①ー②ーーー③④|
⑦④②⑩ |⑤⑥⑦⑧|
口⑤⑪⑧ |⑨ー⑩⑪|
口⑨①口 |ー⑫ー⑬|
47
口⑤②⑤ |ー①ーー|
③③①口 |②ーー③|
②①③口 |ーーー④|
④②④① |ー⑤ー⑥|

口口口口 
>―⑥口 
口⑥―<
口口口口
48
口口口口 |ーーーー|
②口口口 |①ーーー|
口口口① |②ーーー|
口口口口 |ーーーー|
49
②口②口 |①②ー③|
口③①③ |ー④ーー|
④①④口 |ーー⑤⑥|
口⑥口⑤ |⑦⑧ー⑨|

口口口口 
⑧口⑦口 
口口口口 
口口⑨口
50
①口③⑦ |①②③④|
⑧⑤⑩⑪ |⑤⑥ー⑦|
口②⑥④ |⑧⑨⑩⑪|
口⑨口口 |⑫⑬ー⑭|

口口⑭口 
口口口口 
口⑫口口 
口口⑬口
51
①⑥口⑧ |①②③④|
⑤②⑦口 |⑤⑥⑦⑧|
口口③口 |ーー⑨ー|
口口口④ |ー⑩ー⑪|

⑪口口口 
口口口口 
⑪⑩⑩口 
口⑨⑨口
52
口②②④ |①ー②ー|
③⑤⑤① |③④ー⑤|
口⑥⑦④ |ー⑥⑦ー|
③⑥⑦① |⑧ー|

⑧口口口 
口口口口 
口口口口 
口口口⑧
53
⑥①①口 |ーー①ー|
④③③⑤ |ー②ー③|
②口口② |ー④⑤⑥|
④口口⑤ 
54
口⑥③口 |①ー②ー③ー|
口口口口 |④ー⑤ー⑥ー|
口②⑤口 
口④①口 
55
口口口口 |ーーーー|
口⑦⑦口 |⑦ーーー|
口口口口 |ーーーー|
⑦口口⑦ |ーーーー|
56
①③⑫② |ーー①②|
⑨⑦④口 |③④⑤⑥|
口⑤⑧口 |⑦⑧⑨⑩|
⑬⑪⑥⑩ |⑪⑫⑬ー|
57
①①口⑥ |①ーーー②ー|
⑥⑥⑤② |③ー④ー⑤ー|
口口口④ |⑥ーー⑦|
口⑦③口 |ーー⑧⑨|

口口口口 
口口口⑧ 
口口口口 
口口⑨口
58
口口口④ |①ーーー|
口口口口 |ーー②ー|
①①②⑤ |③ーーー|
③③口口 |④⑤ーー|
59
⑤②①口 |①ーーー|
①①②④ |ー②ー③|
④③口口 |ー④ー⑤|
口口③口 |⑥ー⑦⑧|

口口口⑦ 
口⑥口口 
口口⑧口 
口口口口
60
③③口口 |①ーーー|
口口②口 |ーー②ー|
口口口口 |③ーーー|
①①口④ |④ーーー|
61
口⑥口④ |①ー②③|
①①⑦口 |ー④ー⑤|
口③②⑧ |ーー⑥⑦⑧ー⑨ー|
口⑨口⑤ |⑩⑪⑫⑬|

口口口口 
口⑬口口 
⑪口⑫口 
口口⑩口
62
①口③② |①ー②③|
口⑬⑤④ |④⑤⑥⑦|
口⑦⑫⑪ |⑧⑨⑩ー|
⑥⑩⑨⑧ |⑪⑫⑬ー|
63
口口①① |①ーーー|
口口③② |ー②ー③|
口⑥⑤口 |ー④ー⑤|
④口②③ |⑥ー⑦ー|

口口⑦口 
口口口口 
口口口口 
口口口口
64
①③⑦口 |ーー①ー②ー|
⑦①④② |③ー④ー⑤ー|
③⑦⑥② |⑥ー⑦ー|
⑤⑤⑥④ |ーーーー|
65
口口口口 |ーーーー|
口口口口 |ーーーー|
口口口口 
口口口口
66
口口口④ |①ー②③|
①①⑥口 |ー④ー⑤|
口③②口 |ー⑥ー⑦|
口①①⑤ |⑧ー⑨⑩|

⑨口口口 
口⑩口口 
口口口口 
口⑧⑦口
67
⑫②口③ |①ー②③|
⑦口④口 |④⑤⑥ー|
⑩⑧①⑤ |⑦⑧⑨⑩|
⑨口⑥⑪ |⑪ーー⑫ーーーー⑬ー⑭ー|

口口⑬口 
口口⑭口 
口口口口 
口口口口
68
口③口口 |①ー②③|
④⑥口② |ー④ー⑤|
口⑧①口 |ー⑥ー⑦|
⑦⑤口口 |ー⑧ー⑨|

口口口口 
口口口⑨ 
口口口口 
口口口口
69
①―<口 |①ーー②|
口口口口 |ーー③④|
口口口口 |⑤ーー⑥|
口口口口 |ーー⑦ー|

②口口口 
>―②口 
口口口口 
口口口口 

口口口口 
口口③口 
口口口口 
口④口口 

口⑤―< 
口口口口 
口口口口 
口口⑤口 

口⑥口口 
口>―⑥
口口口口 
口口口口 

⑦口口口 
口口口⑦
⑦口口口 
口口口口 
70
口口口④ |①ー②③|
①①⑥口 |ー④ー⑤|
口③②口 |ー⑥ー⑦|
口⑧⑦⑤ |⑧ー⑨⑩|

⑨口口口 
口⑩口口 
口口口口 
口口口口 
71
口口③② |①ー②③|
口口⑤④ |④⑤⑥⑦|
口⑦①口 |⑧⑨⑩ー|
⑥⑩⑨⑧ |⑪⑫ーー|

口口口⑫ 
口口口口 
口口口⑪ 
口口口口 
72
口①⑦口 |①ーーー|
①口③② |ー②ー③|
口⑥⑤口 |ー④ー⑤|
④口②③ |⑥ー⑦ー|
73
④①口② |①ーー②|
①④②口 |ーー③ー|
②口④① |④ーーー|
口③①口 |⑤ーー⑥|

口口⑤口 
口口口口 
口口口⑤ 
⑤口口口 

口⑥―<
⑥―<⑥
口口口口
口口口口 
74
口口口④ |ーー①ー|
口⑤②口 |ー②ーー|
口口口③ |③ーー④|
口口①口 |ー⑤ー⑥|

口⑥口口 
⑥口口口 
>―⑥口 
口>―⑥ 
75
②口口口 |ーー①ー|
口⑥口口 |ー②ーー|
口③③⑤ |③ー④ー|
①口④③ |⑤⑥ー⑦|

>―⑦口
口>―⑦
口口口口
口口口口

76
口②⑤口 |ーー①ー|
⑤④口⑤ |ー②ーー|
口口口口 |③ーー④|
③①口口 |ー⑤ーー|
77
①⑤口④ |①ー②ー③ー|
口口②口 |④ー⑤ー⑥ー|
⑤①④② |ーー⑦ー|
③③⑥⑥ |ーーーー|

口口⑦口 
⑦⑦口⑦ 
口口口口 
口口口口 
78
口口口口 |ーーーー|
口口口口 |ーーーー|
口口口口 |ーーーー|
口口口口 |ーーーー|
最終更新:2022年12月07日 22:35