アットウィキロゴ
Time Lapse

BPM:160
1
口口口口 |ーーーー|
口口口口 |ーーーー|
口口口口 |ーーーー|
口口口口 |ーーーー|
2
口③口⑤ |①ー②ー|
口⑥②⑦ |③ー④ー|
口⑧④① |⑤ー⑥ー|
①――< |⑦ー⑧ー|
3
口口口口 |ーーーー|
>――① |ーーーー|
口口口口 |①ーーー|
①口口口 |ーーーー|
4
①――< |①ー②-|
□□□① |③ー④ー|
□□□□ |⑤ー⑥ー|
□□□① |⑦ー⑧ー|

□□□□
口③⑥□
口⑦②④
⑧⑤□□
5
①口口① |ーーーー|
口口口① |ーーーー|
口口口口 |ーー①ー|
口口口口 |ーーーー|
6
口③口⑤ |①ー②ー|
口⑥②⑦ |③ー④ー|
口⑧④① |⑤ー⑥ー|
①――< |⑦ー⑧ー|
7
口口口口 |ーーーー|
>――① |ーーーー|
口口口口 |①ーーー|
①口口口 |ーーーー|
8
①――< |①ー②ー|
口⑥①① |③ー④ー|
口②⑦⑤ |⑤ー⑥ー|
口④③⑧ |⑦ー⑧ー|
9
①②③① |①ーーー|
口口口口 |ーーーー|
口⑥口口 |②③ー④|
④口口⑤ |⑤ー⑥ー|
10
①⑦口③ |①②③ー|
①⑥口② |④⑤ー⑥|
⑨口⑤⑪ |⑦ー⑧⑨|
⑧口④⑩ |ー⑩⑪ー|
11
⑥口②⑧ |①②ー③|
⑤口①⑦ |④ー⑤⑥|
口④⑩口 |ー⑦⑧ー|
⑪③⑨口 |⑨⑩ー⑪|
12
⑩②⑥口 |ー①②ー|
⑨①⑤口 |③④ー⑤|
口⑧口④ |⑥ー⑦⑧|
口⑦口③ |ー⑨⑩ー|
13
口⑥⑨② |①②ー③|
口⑤⑧① |④ー⑤⑥|
口⑧④口 |⑦ーー⑧|
⑨⑦③⑦ |ーー⑨ー|
14
①⑦口③ |①②③ー|
口⑥口② |④⑤ー⑥|
⑨口⑤⑪ |⑦ー⑧⑨|
⑧口④⑩ |ー⑩⑪ー|
15
⑥口②⑧ |①②ー③|
⑤口①⑦ |④ー⑤⑥|
口④⑩口 |ー⑦⑧ー|
⑪③⑨口 |⑨⑩ー⑪|
16
④口①口 |①ー②ー|
口⑧⑤口 |③ー④ー|
口②口口 |⑤ー⑥ー|
口⑥⑦③ |⑦ー⑧ー|
17
⑦――< |①②③④⑤⑥|
③口口⑥ |⑦⑧⑨⑩|
②口口⑤ |⑪ー⑫⑬|
①口口④ |⑭ーーー⑮⑯⑰ー|

⑧口⑨口 
口口⑩口
>―⑪口
口口口口

口⑭―<
口⑬口口
口⑫⑫口
口口口口

口⑮口⑮
口口口⑯
口口口⑰
口口口口
18
①⑫⑪⑩ |①ー②③④ー|
⑭⑮⑤⑬ |⑤ー⑥⑦⑧ー|
⑥⑦⑧口 |⑨ー⑩⑪⑫ー|
⑨④③② |⑬ー⑭⑮ーー|
19
⑦口⑧口 |①ー②ー③ー|
口口②⑧ |④ー⑤ー⑥ー|
口③⑤① |⑦ーーー|
⑧⑥⑦④ |⑧ーーー|
20
口②口① |①ー②ー|
④口③⑤ |③ー④ー|
口②⑤① |⑤ーーー|
口④口③ |⑥ー⑦ー|

⑥口口⑦ 
口口口口
⑥口口⑦ 
口口口口 
21
口口④口 |①ー②ー|
③①②④ |③ーーー|
口③口口 |④ー⑤ー|
①⑤⑥② |⑥ーーー|
22
①①口② |①ーーー|
①③口口 |②ーーー③④⑤ー|
口口④口 |ーーーー|
口口口⑤ |⑥ー⑦ー|

口⑥口口
口口口⑦
⑥口口口
口口⑦口
23
口口④④ |①ー②ー|
①⑤②口 |③ー④ー|
口①⑤② |⑤ーーー|
③③口口 |⑥ーーー|

口⑥口口
⑥口口口
口口口口
口口口⑥
24
口⑦口③ |①②③ー|
口⑥口② |④⑤ー⑥|
⑨①⑤⑪ |⑦ー⑧⑨|
⑧口④⑩ |ー⑩⑪ー|
25
⑥⑭②⑦ |①②ー③|
⑤⑧①⑪ |④ー⑤⑥|
⑫④⑨口 |⑦⑧⑨⑩|
⑩③⑬口 |⑪⑫⑬⑭|
26
④口①口 |①②③ー|
④⑤②口 |④⑤⑥ー|
口③⑥① |⑦ーーー|
⑦⑦口口 |⑧ー⑨ー|

口⑨⑧口
口口口口
⑨口口⑧
口口口口
27
⑥⑥口① |①ー②ー|
②④①③ |③ー④ー|
口②⑥⑤ |⑤ーーー|
口④⑤③ |⑥ーーー|
28
⑥口①⑦ |①ー②ー|
②⑥⑤① |③ー④ー|
④口⑦③ |⑤ーーー|
②④③⑤ |⑥ー⑦ー|
29
口③⑤口 |①ー②ー|
③⑥口② |③ーーー|
口①口② |④ー⑤ー|
①⑦④④ |⑥ー⑦ー|
30
⑪⑤⑩口 |①②③④|
⑥⑨③② |⑤ー⑥⑦|
⑧⑦①④ |⑧⑨⑩ー|
口口口口 |⑪ー⑫ー⑬ー|

口口口口
口口口口 
口口⑫口 
口⑬口口 
31
口④⑦① |①ー②ー③ー|
②⑧⑤口 |④ー⑤ー⑥ー|
口⑥口口 |⑦ー⑧ー⑨ー|
口口③⑨ |⑩⑪⑫⑬ーー|

⑬口口口
⑫口口口
⑪口口口
⑩口口口
32
口⑥口① |①ー②ー③ー④ーー⑤ーー|
⑪口⑧② |⑥ー⑦ー|
口⑩口③ |⑧⑨⑩⑪|
⑨④⑤⑦ |⑫⑬⑭⑮|

⑮口⑭口
口口口⑬
口口⑫口
口口口口
33
口④⑨② |①ー②ー|
⑦⑧口口 |③ーーー|
③⑥④口 |④ー⑤⑥|
口①⑤口 |⑦ー⑧⑨|
34
口③口⑤ |①ー②ー|
口⑥②⑦ |③ー④ー|
口⑧④① |⑤ー⑥ー|
①――< |⑦ー⑧ー|
35
口口口口 |①ーーー|
>――③ |②ーーー|
口④口② |③ーーー|
③口③① |④ーーー|
36
①――< |①ー②ー|
口③⑥① |③ー④ー|
口⑦②④ |⑤ー⑥ー|
⑧⑤口① |⑦ー⑧ー|
37
③口口③ |①ーーー|
④⑤口③ |②ーーー|
⑤④②口 |③ーー④|
口口口① |ーー⑤ー|
38
口③口⑤ |①ー②ー|
口⑥②⑦ |③ー④ー|
口⑧④① |⑤ー⑥ー|
①――< |⑦ー⑧ー|
39
口口口口 |①ーーー|
>――③ |②ーーー|
口口②口 |③ーーー|
③口③① |④ーーー|

口口口口
口④口口
口口口口
口口口口
40
①――< |①ー②ー|
口口①① |③ー④ー|
口②①口 |⑤ー⑥ー|
口④③口 |⑦ー⑧ー|

口口口口
口⑥口口
口口⑦⑤
口口口⑧
41
①③②① |①ーー②|
口口①② |ーー③ー|
④⑥口⑤ |④ー⑤ー⑥ー|
②③③口 |⑦ー⑧ー⑨ー|

口口口口
⑧口⑦⑨
口口口口
口口口口
42
⑦⑧⑨⑩ |①ー②③④⑤ーー|
口①⑭口 |⑥ー⑦⑧⑨⑩ーー|
⑪⑬⑥⑫ |⑪ー⑫⑬|
⑤④③② |⑭ー⑮⑯|

口口口口
口口口口
口口口口
口⑮⑯□
43
口⑥⑪② |①ーー②③④|
①③口⑧ |⑤ー⑥⑦|
⑤口④⑦ |⑧⑨⑩⑪|
⑩口口⑨ |⑫ー⑬⑭|

⑫口口口 
⑫口口口 
口⑬口口 
口⑭口口 
44
⑩口⑨① |①②③④|
⑪⑤②⑥ |⑤⑥⑦⑧|
⑫口③⑦ |⑨⑩⑪⑫|
口口④⑧ |⑬ー⑭ー|

口口口⑬
口口口口
口口口口
⑭⑭口口
45
⑩⑥⑤口 |①②③④|
⑧②①⑦ |⑤⑥⑦⑧|
⑩④③口 |⑨ーー⑩|
⑪⑪⑨⑨ |ーー⑪ー|
46
⑩⑪④⑨ |①②③④|
⑧①⑧③ |⑤ー⑥⑦|
口⑤②⑦ |⑧⑨⑩ー|
口口⑥口 |⑪ー⑫ー⑬ー|

口口口口
口口口⑫
口口⑬口
口口口口
47
⑩⑩②⑧ |①ー②ー③ー|
口⑦⑥口 |④ー⑤ー⑥ー|
④③口口 |⑦ー⑧ー⑨ー|
口①⑨⑤ |⑩ー⑪⑫|

口口口口
口口口口
口⑫⑪口
口口口口
48
口口①⑧ |①ー②ー|
③⑦口④ |③ー④ー|
口口⑥口 |⑤ー⑥ー|
②⑤口口 |⑦ー⑧ー|
49
⑦――< |①②③④⑤⑥|
③口口⑥ |⑦⑧⑨⑩|
②口口⑤ |⑪ー⑫⑬|
①口口④ |⑭ーーー⑮⑯⑰ー|

⑧口⑨口 
口口⑩口
>―⑪口
口口口口

口⑭―<
口⑬口口
口⑫⑫口
口口口口

口⑮口⑮
口口口⑯
口口口⑰
口口口口
50
口口口口 |①ーーー|
①④②口 |②ーーー|
①口口口 |③ーーー|
①③③③ |④ーーー|
51
①①①③ |①ーーー|
口口口③ |②ーーー|
口口②③ |③ーーー|
口④口口 |④ーーー|
52
⑦⑧口⑤ |①ー②ー|
⑦④⑥⑤ |③ー④ー|
③③②口 |⑤ー⑥ー|
口口①① |⑦ー⑧ー|
53
口∨∨口 |①②ーー|
口||口 |ーーーー|
口||口 |③④⑤⑥|
口①①口 |⑦⑧⑨⑩|

口⑦③口
⑧口口④
口⑨⑤口
⑩②②⑥
54
⑤⑩口① |①②③ー|
口③②⑨ |④⑤⑥⑦|
⑪口⑥① |⑧⑨⑩ー|
口⑦④⑧ |⑪ー⑫⑬|

口口口口 
口⑬⑫口 
口口口口 
口口口口 
55
④⑩口① |①ー②ー③ー|
⑩口⑨⑦ |④ー⑤ー⑥ー|
⑧②⑤⑪ |⑦ー⑧ー⑨ー|
⑫⑥③⑦ |⑩ー⑪ー⑫ー|
56
⑧⑬⑩④ |①②③ー|
⑭③⑨⑫ |④⑤⑥⑦|
口⑤②口 |⑧⑨⑩⑪|
⑪⑥①⑦ |⑫ー⑬⑭|
57
⑧口⑦口 |①ー②③|
⑫①⑥⑨ |④⑤⑥⑦|
⑬⑩⑤② |⑧⑨⑩⑪|
⑭③④⑪ |⑫⑬⑭ー|
58
⑨口⑥口 |①ー②ー③ー|
⑧⑤③⑩ |④ー⑤ー⑥ー|
口⑦⑪② |⑦ー⑧ー⑨ー|
口④①⑫ |⑩ー⑪ー⑫ー|
59
口⑨⑩口 |①ー②ー③ー|
⑧③④⑪ |④ー⑤ー⑥ー|
②⑦⑫⑤ |⑦ー⑧ー⑨ー|
口①⑥口 |⑩ー⑪ー⑫ー|
60
⑩口口① |①②③④|
口②③⑨ |⑤ー⑥⑦|
⑥⑧口口 |⑧⑨⑩ー|
④口⑤⑦ |⑪ーーー|

口口口⑪
口口口口
口口口口
口口口口
61
口⑫①口 |①ー②ー③ー|
⑧④②口 |④ー⑤ー⑥ー|
⑨⑤⑦③ |⑦ー⑧⑨⑩ー|
⑩口⑥⑪ |⑪ー⑫ー|
62
⑤⑩口① |①②③ー|
口③②⑨ |④⑤⑥⑦|
⑪口⑥① |⑧⑨⑩ー|
口⑦④⑧ |⑪ー⑫⑬|

口口口口
口⑬⑫口
口口口口
口口口口
63
④⑩口① |①ー②ー③ー|
⑩口⑨⑦ |④ー⑤ー⑥ー|
⑧②⑤⑪ |⑦ー⑧ー⑨ー|
⑫⑥③⑦ |⑩ー⑪ー⑫ー|
64
⑧⑬⑩④ |①②③ー|
⑭③⑨⑫ |④⑤⑥⑦|
口⑤②口 |⑧⑨⑩⑪|
⑪⑥①⑦ |⑫ー⑬⑭|
65
⑧口⑦口 |①ー②③|
口①⑥⑪ |④⑤⑥⑦|
口⑩⑤② |⑧ー⑨ー|
口③④⑨ |⑩ー⑪ー|
66
⑨①⑥口 |①ー②ー③ー|
⑧⑤③⑩ |④ー⑤ー⑥ー|
口⑦⑪② |⑦ー⑧ー⑨ー|
口④口⑫ |⑩ー⑪ー⑫ー|
67
口⑨⑩口 |①ー②ー③ー|
⑧③④⑪ |④ー⑤ー⑥ー|
②⑦⑫⑤ |⑦ー⑧ー⑨ー|
口①⑥口 |⑩ー⑪ー⑫ー|
68
⑩口口① |①②③④|
口②③⑨ |⑤ー⑥⑦|
⑥⑧口口 |⑧⑨⑩ー|
④口⑤⑦ |⑪ーーー|

口口口⑪
口口口口
口口口口
口口口口
69
口口口口 |①ー②ー|
口①⑦口 |③ーーー|
⑧⑥②口 |④ー⑤⑥|
⑤③口④ |⑦ー⑧ー|
70
①⑦①③ |①②③ー|
口⑥口② |④⑤ー⑥|
⑨口⑤⑪ |⑦ー⑧⑨|
⑧口④⑩ |ー⑩⑪ー|
71
⑥口②⑧ |①②ー③|
⑤口①⑦ |④ー⑤⑥|
口④⑩口 |ー⑦⑧ー|
⑪③⑨口 |⑨⑩ー⑪|
72
⑩②⑥口 |ー①②ー|
⑨①⑤口 |③④ー⑤|
口⑧口④ |⑥ー⑦⑧|
口⑦口③ |ー⑨⑩ー|
73
口②口① |①②③④|
⑩④⑨③ |⑤⑥⑦⑧|
⑥口⑤⑨ |⑨ーー⑩|
⑧⑩⑦口 |ーー⑪ー|

⑪⑪口口
口口口口
口口口口
口口口口
74
⑩⑪④⑨ |①②③④|
⑧①⑧③ |⑤ー⑥⑦|
口⑤②⑦ |⑧⑨⑩ー|
口口⑥口 |⑪ー⑫ー⑬ー|

口口口口
口口口⑫
口口⑬口
口口口口
75
⑩⑩②⑧ |①ー②ー③ー|
口⑦⑥口 |④ー⑤ー⑥ー|
④③口口 |⑦ー⑧ー⑨ー|
口①⑨⑤ |⑩ー⑪⑫|

口口口口
口口口口
口⑫⑪口
口口口口
76
口口①⑧ |①ー②ー|
③⑦口④ |③ー④ー|
口口⑥口 |⑤ー⑥ー|
②⑤口口 |⑦ー⑧ー|
77
⑦――< |①②③④⑤⑥|
③口口⑥ |⑦⑧⑨⑩|
②口口⑤ |⑪ー⑫⑬|
①口口④ |⑭ーーー⑮⑯⑰ー|

⑧口⑨口 
口口⑩口
>―⑪口
口口口口

口⑭―<
口⑬口口
口⑫⑫口
口口口口

口⑮口⑮
口口口⑯
口口口⑰
口口口口
78
口∨∨口 |①ーーー|
①口口< |ーーーー|
①口口< |ーーーー|
口①①口 |ーーーー|
79
口口口口 |ーーーー|
口口口口 |ーーーー|
口口口口 |ーーーー|
口口口口 |ーーーー|
80
口口口口 |ーーーー|
口口口口 |ーーーー|
口口口口 |ーーーー|
口口口口 |ーーーー|
81
口口口口 |ーーーー|
口口口口 |ーーーー|
口口口口 |ーーーー|
口口口口 |ーーーー|
82
口口口口 |ーーーー|
口口口口 |ーーーー|
口口口口 |ーーーー|
口口口口 |ーーーー|
83
口口口口 |①ーーー|
①口口口 |ーーーー|
①口口口 |ーーーー|
口①①口 |ーーーー|
84
口口口口 |ーーーー|
口口口口 |ーーーー|
口口口口 |ーーーー|
口口口口 |ーーーー|
最終更新:2022年08月29日 04:18