アットウィキロゴ
brown hawk owl

めっちゃくちゃ可読性低いです、、
混フレは基本的に
①フレーズ1
②フレーズ2
③ホールドの終点
に分けて書いてます

BPM:190
1
①①□□ |①---|
□□④② |②-③-|
□□③⑤ |--④-|
∧∧①① |⑤---|
2
□□②□ |①-②-|
□□⑤③ |--③-|
□①④□ |④---|
□□□□ |⑤---|
3
11∨∨ |①---|
⑤③□□ |②-③-|
②④□□ |--④-|
□□①① |⑤---|
4
□□□□ |①-②-|
□④①□ |--③-|
③⑤□□ |④---|
□②□□ |⑤---|
5
①□□< |①---|
①□□< |②-③-|
□□□□ |--④-|
□□11 |⑤---|

□□□□
□□④□
□□②⑤
□③□□
6
□□□□ |①-②-|
□□⑤① |--③-|
□③②□ |④---|
□□④□ |⑤---|
7
1④③□ |①-②-|
1②□□ |③-④-|
>□□① |⑤-⑥-|
>□□① |⑦-⑧-|

□□□□
□□□□
⑦□⑧□
⑤□⑥□
8
⑦⑤⑥□ |①-②-|
③④②⑧ |③-④-|
□①□□ |⑤-⑥-|
□□□□ |⑦-⑧-|
9
□□□□ |①---|
□□□□ |②-③-|
①□□1 |--④-|
□①□1 |⑤-⑥-|

□⑥□<
④□<□
□②□<
□□□□

□□□②
6□③⑤
□4□□
□□④□
10
②2①□ |①-②-|
□③□⑦ |③-④-|
⑥□④② |⑤-⑥-|
⑤□□⑤ |⑦---|
11
①□□□ |①---|
□□□□ |②-③-|
□□□① |--④-|
□□□□ |⑤-⑥-|

□⑥□<
④□<□
□②□<
□□□□

□□□②
6□③⑤
□4□□
□□④□
12
②2①□ |①-②-|
□③□⑥ |③-④-|
④⑦④② |⑤---|
□⑥□⑤ |⑥-⑦-|
13
□□□□ |①---|
①□□< |②-③-|
③□□< |--④-|
⑤□□< |⑤---|

□□□②
3□③⑤
5□□①
□□④□
14
□⑤①□ |①-②-|
□□□⑤ |--③-|
□□③② |④---|
4□□④ |⑤---|
15
③□□< |①---|
①□□< |②-③-|
⑤□□< |--④-|
□□□□ |⑤---|

5□□②
3□③⑤
□□□①
□□④□
16
□⑨①□ |①-②-|
□④⑧□ |--③-|
4⑤③② |④-⑤-|
⑦□⑥④ |⑥⑦⑧⑨|
17
>□⑥① |①---|
□>□④ |②-③-|
>□②① |--④-|
□□□□ |⑤-⑥-|

②□□□
⑤③□6
□□4□
□④□□
18
□①2② |①-②-|
⑦□③□ |③-④-|
②④□⑥ |⑤-⑥-|
⑤□□⑤ |⑦---|
19
□□□① |①---|
□□□□ |②-③-|
①□□□ |--④-|
□□□□ |⑤-⑥-|

>□⑥□
□>□④
>□②□
□□□□

②□□□
⑤③□6
□□4□
□④□□
20
□①2② |①-②-|
⑥□③□ |③-④-|
②④⑦④ |⑤---|
⑤□⑥□ |⑥-⑦-|
21
>□□① |①---|
>□□③ |②-③-|
>□□⑤ |--④-|
□□□□ |⑤---|

②□□3
⑤③□5
①□□□
□④□□
22
□□□□ |①-②-|
□□□□ |--③-|
□□□2 |④---|
>□□② |⑤---|

□①⑤□
⑤□□□
②③□□
④□□4
23
□□□□ |①---|
>□□① |②-③-|
□□③□ |--④-|
□□□□ |⑤-⑥-|

□□□⑤
□□□□
>□□⑥
□□□□

②□□□
⑤③□3
①□□□
□④□□
24
□①⑩□ |①-②-|
□⑨③□ |③---|
□②⑧3 |④-⑤⑥|
⑤⑦⑥④ |⑦⑧⑨⑩|
25
①④⑥② |①---|
①⑥④② |②---|
①④⑥② |③-④-|
⑤□□③ |⑤-⑥-|
26
①□□□ |----|
□□②② |①---|
②②□③ |②---|
□□□□ |③---|
27
□①①① |①---|
③④⑤④ |②-③-|
□⑤④⑤ |--④-|
□②②② |--⑤-|
28
①②③④ |---①②③|
⑤⑤□□ |④---|
□□□□ |⑤---|
⑥□⑤⑤ |⑥---|
29
□⑤⑤□ |①---|
□□□① |②-③-|
④□③② |--④-|
□□□□ |⑤---|
30
□□⑤□ |①---|
③①①□ |②-③-|
④□⑤② |--④-|
③□□□ |⑤---|
31
⑥⑩⑪⑦ |①---|
②①①③ |②③④⑤|
⑫⑧⑨⑬ |⑥⑦⑧⑨|
④□□⑤ |⑩⑪⑫⑬|
32
⑨⑬⑭⑩ |①②③④|
⑤①②⑥ |⑤⑥⑦⑧|
⑮⑪⑫⑯ |⑨⑩⑪⑫|
⑦③④⑧ |⑬⑭⑮⑯|
33
□□□⑤ |①---|
④①①□ |②---|
□□□⑤ |③--④|
④②③□ |--⑤-|
34
⑤①①□ |①---|
□□□④ |②---|
⑤□②□ |③--④|
□③□④ |--⑤-|
35
□①①② |①--②|
⑥⑤⑤□ |③-④-|
□④③⑧ |⑤--⑥|
④⑦⑧□ |⑦-⑧-|
36
□①①□ |①---|
⑥③③⑤ |②-③-|
□□□□ |--④-|
②④□□ |⑤-⑥-|
37
③⑧⑨② |①--②|
⑩□□⑪ |--③-|
⑥①①⑦ |④⑤⑥⑦|
③④⑤② |⑧⑨⑩⑪|
38
③□⑦② |①--②|
⑩⑥□⑪ |--③-|
⑧①①⑤ |④⑤⑥⑦|
③④⑨② |⑧⑨⑩⑪|
39
⑥③⑤② |①--②|
□④④□ |--③-|
□①①□ |④--⑤|
⑥③⑤② |--⑥-|
40
□□□□ |①---|
□□□□ |----|
□①①□ |②---|
□□□□ |③---|

□□□②
□□□③
③□<□
□②□<

□□□□
□□□□
□□□□
□3□□
41
□□□□ |①--②|
□①□< |--③-|
□□□□ |-④--|
□□□□ |⑤-⑥-|

□□□□
③□<□
□□□□
□⑤□□

□□⑤③
53④⑥
1□②□
□□□①
42
□□□□ |①--②|
□□□□ |--③-|
□①□< |-④--|
□□□□ |⑤-⑥-|

□□□□
□□□□
③□<□
□⑤□□

□□⑤③
□□④⑥
53□②
□□①□
43
□□□□ |①--②|
□①□< |--③-|
□□□□ |-④--|
□□□□ |⑤-⑥-|

□□□□
③□<□
□□□□
⑤□□□

□□⑤③
53④⑥
□□②□
□□□①
44
□①□< |①--②|
□□□□ |--③-|
□□□□ |④-⑤-|
□□□□ |⑥-⑦-|

③□<□
□□□□
□⑥□□
□□□□

63□③
□□□□
□□□②
□□①□

□□⑤□
□□④⑥
□□□□
□□⑦□
45
□□□□ |①--②|
①①□□ |--③-|
⑥□<□ |④⑤--|
□④□< |⑥-⑦-|

□□⑥③
□□⑤⑦
□□②□
□6□①
46
□①□< |①--②|
③□<□ |--③-|
□⑤□< |-④--|
□□□□ |⑤-⑥-|

□3⑤③
5□④⑥
1□□②
□□①□
47
□□□□ |①--②|
□①□< |--③-|
□□□□ |-④--|
③□□< |⑤-⑥-|

□□⑤③
□3④⑥
□1②□
□□□①
48
□□⑥③ |①--②|
□□⑤⑦ |--③-|
□□□② |④⑤--|
□□①□ |⑥-⑦-|

□□□□
□□□□
⑥□<□
□④□<

□□□□
□□□□
□□□□
16□□
49
□□⑤③ |①--②|
□□④⑥ |--③-|
□□②□ |-④--|
□□□① |⑤-⑥-|

□□□□
□①□<
□□□□
□□□□

□□□□
③□<□
□□□□
□⑤□□

□□□□
53□□
1□□□
□□□□
50
□□⑤③ |①--②|
□□④⑥ |--③-|
□□□② |-④--|
□□①□ |⑤-⑥-|

□□□□
□□□□
□①□<
□□□□

□□□□
□□□□
③□<□
□⑤□□

□□□□
□□□□
53□□
□□□□
51
□□⑤③ |①--②|
□□④⑥ |--③-|
□□②□ |-④--|
□□□① |⑤-⑥-|

□□□□
□①□<
□□□□
□□□□

□□□□
③□<□
□□□□
⑤□□□

□□□□
53□□
□□□□
□□□□
52
□□□③ |①--②|
□□□□ |--③-|
□□□② |④-⑤-|
□□①□ |⑥-⑦-|

□□⑤□
□□④⑥
□□□□
□□⑦□

□①□<
□□□□
□□□□
□□□□

③□<□
□□□□
□⑥□<
□□□□

63□□
□□□□
□□□□
□□□□
53
□□⑥③ |①--②|
①①⑤⑦ |--③-|
□□②□ |④⑤--|
□□□① |⑥-⑦-|

□④□<
□□□□
⑥□<□
□□□□

□6□□
□□□□
□1□□
□□□□
54
□□⑤③ |①--②|
□□④⑥ |--③-|
□□□② |-④--|
□□①□ |⑤-⑥-|

□□□□
①□<□
□□□□
□③□<

□□□□
3⑤□<
1□□□
□5□□
55
□□⑤③ |①--②|
□□④⑥ |--③-|
□□□② |-④--|
□□①□ |⑤-⑥-|

③③□□
□□□□
①□<□
□□□□

□□□□
□1□□
3□□□
□□□□
56
□□□□ |①-②-|
□□□□ |③-④-|
□④③□ |⑤⑥⑦⑧|
②□□① |⑨⑩⑪⑫|

⑤□⑫⑧
□⑨□□
⑪□□⑩
□⑦⑥□
57
□□□□ |①---|
>□□② |--②-|
□□□□ |----|
①□<□ |----|

□□□□
□□□□
□□□□
2□□□
58
①②□□ |----|
□□□1 |----|
□□□□ |----|
□□□□ |--①②|
59
□□①□ |①--②|
②□□⑤ |--③-|
□③⑥□ |④--⑤|
④□□□ |--⑥-|
60
□②⑤□ |①--②|
□⑥③□ |--③-|
□④□□ |④--⑤|
□□□① |--⑥-|
61
□□□□ |①---|
□□□□ |--②-|
□□①□ |----|
②□□□ |----|
62
□□②① |----|
□□□□ |----|
□□□□ |----|
□□□□ |--①②|
63
□□□□ |①---|
②③□① |--②③|
④□⑥⑤ |④---|
□□□□ |--⑤⑥|
64
②③⑧⑤ |①-②③|
④⑨⑥⑦ |④-⑤⑥|
⑩⑬⑭□ |⑦⑧⑨⑩|
□⑪⑫① |⑪⑫⑬⑭|
65
②②□□ |①---|
□□③③ |②---|
□□□□ |--③-|
①□□□ |----|
66
□□□□ |①---|
□□□□ |--②-|
①①□□ |----|
□□□② |③-④-|

□□③□
□④□③
④□□□
□□□□
67
□□□⑥ |----|
⑤□□□ |--①②|
□□□④ |③-④-|
□③②① |⑤-⑥-|
68
②□□□ |①-②-|
□⑦③⑦ |③-④-|
⑥①⑥□ |⑤--⑥|
④□⑤⑤ |--⑦-|
69
□①①□ |①---|
②□□□ |--②-|
□□□□ |----|
□□□③ |③---|
70
□□□□ |----|
□⑦⑥④ |--①②|
⑤③②① |③-④-|
□□□□ |⑤-⑥⑦|
71
⑧⑦⑥⑤ |①②③④|
⑯⑮⑭⑬ |⑤⑥⑦⑧|
⑫⑪⑩⑨ |⑨⑩⑪⑫|
④③②① |⑬⑭⑮⑯|
72
□□□② |①---|
□□□③ |----|
□□□□ |②---|
□□□① |③---|

□□□□
□□□□
③□<□
□②□<

□□□□
□□□□
□□□□
□3□□
73
□□⑤③ |①--②|
□□④⑥ |--③-|
□□②□ |-④--|
□□□① |⑤-⑥-|

□□□□
□①□<
□□□□
□□□□

□□□□
③□<□
□□□□
□⑤□□

□□□□
53□□
1□□□
□□□□
74
□□⑤③ |①--②|
□□④⑥ |--③-|
□□□② |-④--|
□□①□ |⑤-⑥-|

□□□□
□□□□
□①□<
□□□□

□□□□
□□□□
③□<□
□⑤□□

□□□□
□□□□
53□□
□□□□
75
□□⑤③ |①--②|
□□④⑥ |--③-|
□□②□ |-④--|
□□□① |⑤-⑥-|

□□□□
□①□<
□□□□
□□□□

□□□□
③□<□
□□□□
⑤□□□

□□□□
53□□
□□□□
□□□□
76
□□□③ |①--②|
□□□□ |--③-|
□□□② |④-⑤-|
□□①□ |⑥-⑦-|

□□⑤□
□□④⑥
□□□□
□□⑦□

□①□<
□□□□
□□□□
□□□□

③□<□
□□□□
□⑥□□
□□□□

63□□
□□□□
□□□□
□□□□
77
□□⑥③ |①--②|
□□⑤⑦ |--③-|
□□②□ |④⑤--|
□□□① |⑥-⑦-|

□□□□
①①□□
⑥□<□
□④□<

□□□□
□□□□
□□□□
□6□□
78
□□⑤③ |①--②|
□□④⑥ |--③-|
□□□② |-④--|
□□①□ |⑤-⑥-|

□①□<
③□<□
□⑤□<
□□□□

□3□□
5□□□
1□□□
□□□□
79
□□⑤③ |①--②|
□□④⑥ |--③-|
□□②□ |-④--|
□□□① |⑤-⑥-|

□□□□
□①□<
□□□□
③□□<

□□□□
□3□□
□1□□
□□□□
80
□□⑥③ |①--②|
□□⑤⑦ |--③-|
□□□② |④⑤--|
1□①□ |⑥-⑦-|

□□□□
□□□□
⑥□<□
□④□<

□□□□
□□□□
□□□□
□6□□
81
□□⑤③ |①--②|
□□④⑥ |--③-|
□□②□ |-④--|
□□①① |⑤-⑥-|

□□□□
□①□<
□□□□
□□□□

□□□□
③□<□
□□□□
□⑤□□

□□□□
53□□
1□□□
□□□□
82
□□⑤③ |①--②|
□□④⑥ |--③-|
□□□② |-④--|
□□①① |⑤-⑥-|

□□□□
□□□□
□①□<
□□□□

□□□□
□□□□
③□<□
□⑤□□

□□□□
□□□□
53□□
□□□□
83
□□⑤③ |①--②|
□□④⑥ |--③-|
□□②□ |-④--|
□□①① |⑤-⑥-|

□□□□
□①□<
□□□□
□□□□

□□□□
③□<□
□□□□
⑤□□□

□□□□
53□□
□□□□
□□□□
84
□□□③ |①--②|
□□□□ |--③-|
□□□② |④-⑤-|
□□①① |⑥-⑦-|

□□⑤□
□□④⑥
□□□□
□□⑦□

□①□<
□□□□
□□□□
□□□□

③□<□
□□□□
□⑥<□
□□□□

63□□
□□□□
□□□□
□□□□
85
□⑥⑦□ |①-②-|
①①□□ |③-④-|
②1③⑤ |⑤-⑥-|
⑧④□① |⑦-⑧-|
86
②□□③ |①-②-|
□⑥⑦① |③-④-|
④□□□ |⑤-⑥-|
□⑧⑤① |⑦-⑧-|
87
④⑧①⑤ |①②③④|
⑯⑫⑬⑨ |⑤⑥⑦⑧|
⑩②⑮③ |⑨⑩⑪⑫|
⑥⑭⑪⑦ |⑬⑭⑮⑯|
88
④⑧①⑤ |①②③④|
⑯⑫⑬⑨ |⑤⑥⑦⑧|
⑩②⑮③ |⑨⑩⑪⑫|
⑥⑭⑪⑦ |⑬⑭⑮⑯|
89
□□①□ |①---|
>□□② |--②-|
□□□□ |--③-|
>□□② |④---|

③□□□
□□□□
□④□□
□□□□
90
□①□□ |①-②-|
③⑤□□ |--③-|
②□□□ |④---|
□④□□ |⑤---|
91
②④□□ |①---|
□□□□ |②-③-|
⑤③①□ |--④-|
□□□□ |⑤---|
92
□□□□ |①-②-|
①③□□ |--③-|
□⑤□□ |④---|
④②□□ |⑤---|
93
□□□□ |①---|
□□□1 |----|
□□□□ |----|
□□□1 |----|
最終更新:2024年09月14日 15:15