アットウィキロゴ
Lost Dream

BPM:180
1
①□□< |①-②-|
□□□□ |③-④-|
⑤⑥⑦⑧ |⑤-⑥-|
①②③④ |⑦-⑧-|
2
□□□□ |①-②-|
□□□□ |③-④-|
⑤⑥⑦⑧ |⑤-⑥-|
①②③④ |⑦-⑧-|
3
1□□□ |①-②-|
①□□< |③-④-|
⑤⑥⑦⑧ |⑤-⑥-|
①②③④ |⑦-⑧-|
4
□□□□ |①-②-|
□□□□ |③-④-|
⑤⑥⑦⑧ |⑤-⑥-|
①②③④ |⑦-⑧-|
5
□①②③ |①-②-|
1④□□ |③-④-|
□□□□ |⑤-⑥-|
①②③④ |⑦-⑧-|

⑦⑧□□
□□⑤⑥
⑤⑥⑦⑧
□□□□
6
□□①□ |①-②-|
②③④□ |③-④-|
□□□□ |⑤-⑥-|
①②③④ |⑦-⑧-|

□⑦⑧⑤
□□□□
⑤⑥⑦⑧
□□□□
7
①⑥□⑧ |①-②-|
□④□② |③-④-|
⑤⑥⑦⑧ |⑤-⑥-|
①②③④ |⑦-⑧-|
8
⑤⑥⑦⑧ |①-②-|
②□□④ |③-④-|
⑨⑩⑪⑫ |⑤⑥⑦⑧|
①②③④ |⑨⑩⑪⑫|
9
⑤□□⑨ |①-②-|
⑥①④⑩ |③-④-|
⑦□□⑪ |⑤⑥⑦⑧|
⑧②③⑫ |⑨⑩⑪⑫|
10
⑧②③⑫ |①-②-|
⑦口口⑪ |③-④-|
⑥①④⑩ |⑤⑥⑦⑧|
⑤口口⑨ |⑨⑩⑪⑫|
11
⑤口口⑨ |①-②-|
⑥①④⑩ |③-④-|
⑦口口⑪ |⑤⑥⑦⑧|
⑧②③⑫ |⑨⑩⑪⑫|
12
⑧②③⑫ |①-②-|
⑦口口⑪ |③-④-|
⑥①④⑩ |⑤⑥⑦⑧|
⑤口口⑨ |⑨⑩⑪⑫|
13
口口口口 |①-②-|
口⑤④口 |③-④⑤|
口③口口 |⑥-⑦-|
口①②口 |⑧-⑨⑩|

口口⑦口
⑥口口口
⑧口口口
口口⑩⑨
14
③口口② |①-②-|
口⑥⑤④ |③-④⑤|
⑧⑩⑨⑦ |⑥-⑦-|
口①口口 |⑧-⑨⑩|
15
④⑧①⑤ |①②③④|
⑫⑯⑨⑬ |⑤⑥⑦⑧|
⑩⑭⑮⑪ |⑨⑩⑪⑫|
②⑥⑦③ |⑬⑭⑮⑯|
16
>□①口 |①---|
口口口口 |②③④⑤|
口口口口 |⑥-⑦-|
②③④⑤ |⑧---|

⑧⑧8口
口口⑥口
⑦口口口
口口口口
17
⑧⑧口口 |①---|
①口⑥② |②-③④|
⑥①口⑤ |⑤--⑥|
③④⑤⑦ |⑦-⑧-|
18
口口口① |①-②③|
②③口④ |④⑤⑥-|
口①口口 |⑦---|
⑤⑥口口 |⑧-⑨⑩|

口口口口
口口口口
⑦⑩口⑦
口口⑨⑧
19
口⑤⑥① |①-②③|
口②③④ |④⑤⑥-|
⑪⑫口⑦ |⑦-⑧⑨|
⑧⑨口⑩ |⑩⑪⑫-|
20
③<口① |①---|
>③口② |②---|
口口口口 |③④--|
口口口口 |⑤⑥--|

>⑤口口
⑤<口口
口口口口
口口口口

46口口
64口口
口口口口
口口口口
21
口口口① |①-②③|
口口口④ |④⑤⑥-|
②③口口 |⑦-⑧⑨|
⑤⑥①口 |⑩⑪⑫-|

⑦⑪⑫口
口⑧⑨口
口口口⑦
口口⑫⑩
22
⑦⑬⑫① |①-②③|
⑪⑨⑧④ |④⑤⑥-|
②③①口 |⑦⑧⑨⑩|
⑤⑥⑭⑩ |⑪⑫⑬⑭|
23
⑦口⑥口 |①-②-|
⑧口⑤③ |③-④-|
④①①③ |⑤-⑥-|
②⑦口⑤ |⑦-⑧-|
24
⑮⑤⑪① |①②③④|
⑯⑥⑫② |⑤⑥⑦⑧|
⑦⑬③⑨ |⑨⑩⑪⑫|
⑧⑭④⑩ |⑬⑭⑮⑯|
25
⑨⑦⑧⑥ |①-②③|
口②口① |④-⑤-|
④口③⑤ |⑥-⑦-|
⑨⑦⑧⑥ |⑧-⑨-|
26
⑧⑥⑦⑤ |--①②|
口①口口 |③-④-|
③口②④ |⑤-⑥-|
⑧⑥⑦⑤ |⑦-⑧-|
27
⑧⑥⑦⑤ |--①②|
⑧①⑦口 |③-④-|
③口②④ |⑤-⑥-|
⑧⑥⑦⑤ |⑦-⑧-|
28
⑪⑦⑧⑫ |--①②|
口口口④ |③-④-|
③②①口 |⑤⑥⑦⑧|
⑨⑤⑥⑩ |⑨⑩⑪⑫|
29
口口口口 |①-②③|
④③②⑩ |④-⑤-|
⑥①口⑤ |⑥-⑦⑧|
⑨⑧⑦口 |⑨-⑩-|
30
④③②口 |①-②③|
⑦⑧⑨口 |④-⑤-|
口①⑥口 |⑥-⑦⑧|
⑩口口⑤ |⑨-⑩-|
31
⑫④①⑨ |①②③④|
⑧⑯⑬⑤ |⑤⑥⑦⑧|
⑥⑩⑪⑦ |⑨⑩⑪⑫|
⑭②③⑮ |⑬⑭⑮⑯|
32
口口①口 |①---|
③口口② |②---|
③口口② |③---|
④③②⑤ |④-⑤-|
33
口口口口 |①②③④|
口①□< |⑤⑥⑦⑧|
口口口口 |⑨⑩⑪⑫|
口口口口 |⑬⑭⑮⑯|

口口口口
口2②口
口口□口
口口∧口

口口口口
口口3口
>□③口
口口口口

口V口口
口□口口
口④4口
口口口口

口口⑤口
口>□⑤
口5∧口
口口口口

口口6口
口V口6
⑦□<口
口⑦口口

口⑨口口
⑨□<口
8∧口口
口8口口

⑫><⑪
V⑮V口
|>□⑬
⑮∧⑬口

1310口12
1016口口
口口口14
16口14口
34
口口口口 |①②③-|
口口①V |④⑤⑥-|
口③□□ |⑦⑧⑨-|
口口∧① |⑩⑪⑫⑬|

>□④口
口口2口
>□④口
口口口2

口口5口
口口口口
⑥口5口
口口口口

口口口口
⑦V口口
□□口口
∧⑦口口

⑩□<口
8⑩□<
口口口⑨
口8口口

11口口口
口11口口
口口口口
口口口口

口口口口
口>□⑫
口口口口
口>□⑫

口口口口
口口口13
口口口口
口口口13
35
口口口口 |①②③-|
口口口口 |④⑤⑥-|
口①□< |⑦⑧⑨⑩|
①□<口 |⑪⑫⑬⑭|

口口口③
口口口口
口2口口
2口口口

V④口口
□□口口
④∧⑥口
口口口口

口5口口
口口V口
5口□口
口口⑦口

口口口口
⑧V<口
口□口口
口⑩8口

⑬□<口
9>□⑪
口口口口
口11口口

14口口口
>□⑭12
口口口口
口口口口
36
>V③口 |①②-③|
口□1口 |④-⑤⑥|
口①口口 |⑦⑧--|
口口口③ |⑨⑩⑪⑫|

口⑤4<
口口口口
口2口口
⑤口口口

口6口口
口⑦<口
口>⑦口
口口口口

⑨口口口
口8口⑩
⑪口8口
口口⑫口
37
口⑧⑦② |①-②-|
⑥⑤④口 |③-④⑤|
⑩③口口 |⑥-⑦⑧|
口①⑨① |⑨-⑩-|
38
口口口② |①-②-|
口⑤④口 |③-④⑤|
口③口口 |⑥⑦⑧⑨|
口①口① |⑩-⑪⑫|

⑧⑧⑪口
⑥口口⑦
⑩口⑦⑨
⑥⑫⑨口
39
④口口① |①--②|
⑥③②⑤ |--③-|
⑤②③⑥ |④--⑤|
④口口① |--⑥-|
40
⑨①②⑩ |①②③④|
⑬⑤⑥口 |⑤⑥⑦⑧|
⑬⑦⑧口 |⑨⑩⑪⑫|
⑪③④⑫ |⑬---|
41
⑤口口⑥ |①-②-|
口口口① |③-④-|
口口③④ |--⑤-|
口②口口 |--⑥-|
42
口②口口 |----|
④口口口 |①---|
口①③口 |②-③-|
口口口口 |--④-|
43
口口口③ |--①-|
口②⑤口 |②---|
口口口口 |③-④-|
口④口① |--⑤-|
44
口②口③ |--①-|
口口口口 |②---|
口④口口 |③-④-|
①口口⑤ |⑤---|
45
⑤口④⑥ |①-②-|
①③口口 |③-④-|
口口口口 |--⑤-|
口口②口 |--⑥-|
46
口口口口 |----|
口口②口 |①---|
口①④口 |②-③-|
③口口口 |--④-|
47
口口口③ |--①-|
②口口口 |②---|
口口⑤口 |③-④-|
口④口① |--⑤-|
48
口②①口 |--①②|
⑥⑤④③ |③④⑤⑥|
⑭⑬⑫⑪ |⑦⑧⑨⑩|
⑩⑨⑧⑦ |⑪⑫⑬⑭|
49
口口④① |①-②-|
③口②口 |③-④-|
口口口口 |--⑤-|
口口口口 |--⑥-|

⑤口口⑥
口口口口
口口口口
口口口口
50
口口口口 |----|
口①口② |①---|
口口④口 |②-③-|
口③口口 |--④-|
51
②口③口 |--①-|
口口⑤口 |②---|
口④口口 |③-④-|
口口①口 |--⑤-|
52
口②口③ |--①-|
口口口口 |②---|
口④口口 |③-④-|
①口口⑤ |⑤---|
53
①⑦④⑩ |①-②-③-|
口口口口 |④-⑤-⑥-|
②⑧⑤⑪ |⑦-⑧-⑨-|
③⑨⑥⑫ |⑩-⑪-⑫-|
54
口口口口 |①-②-③-|
①⑦④⑩ |④-⑤-⑥-|
②⑧⑤⑪ |⑦-⑧-⑨-|
③⑨⑥⑫ |⑩-⑪-⑫-|
55
①口④口 |①-②-|
③口⑦⑥ |③-④-|
口口②口 |--⑤-|
⑤口口口 |--⑥⑦|
56
口口口④ |①-②-|
⑥①口口 |--③-|
口⑤口口 |--④-|
口③口② |⑤-⑥-|
57
⑤口①口 |①-②③|
⑧②③④ |④-⑤-|
口⑥口⑦ |--⑥-|
⑤口①口 |⑦-⑧-|
58
口③口① |①-②-|
口口口口 |--③-|
口口②口 |④-⑤⑥|
口③口① |⑦-⑧⑨|

⑦口④口
口⑤⑧口
口⑥⑨口
⑦口④口
59
⑦③口① |①-②-|
口⑤⑧④ |--③-|
②⑥口口 |④-⑤⑥|
⑦③口① |⑦-⑧-|
60
口③④② |①--②|
口⑤⑤口 |--③-|
①口口① |-④--|
口③④② |⑤---|
61
①③口口 |①-②-|
口口口④ |③-④-|
⑦⑤②口 |⑤-⑥-|
①⑧⑥口 |⑦-⑧-|
62
②口⑤① |①-②-|
⑧④①口 |③-④-|
口⑥③⑦ |⑤-⑥-|
口口口① |⑦-⑧-|
63
⑫④⑨① |①②③④|
⑯⑧⑤⑬ |⑤⑥⑦⑧|
⑩⑭⑦⑮ |⑨⑩⑪⑫|
②⑥⑪③ |⑬⑭⑮⑯|
64
口③口① |①-②-|
⑤口口⑧ |--③-|
⑥口④⑨ |--④-|
⑦②口⑩ |⑤⑥⑦⑧⑨⑩|
65
⑤④③② |①---②③④⑤|
口①①⑪ |⑥-⑦-|
⑩⑦⑨口 |⑧-⑨-|
⑩⑧⑥⑪ |⑩-⑪-|
66
口②口① |①-②-|
②口③口 |--③-|
口口口③ |④---⑤⑥⑦⑧|
口口口口 |⑨-⑩-|

④口口⑩
口⑨口口
⑨④⑩口
⑤⑥⑦⑧
67
③①④⑨ |①-②-|
②⑩④② |--③-|
⑩③口⑨ |④---⑤⑥⑦⑧|
⑧⑦⑥⑤ |⑨-⑩-|
68
②①④⑥ |--①-|
③口口② |--②-|
⑤口①口 |--③④|
口口口口 |⑤-⑥-|
69
口①口口 |①---②③④⑤|
口⑥⑥口 |⑥-⑦-|
口⑦①口 |⑧-⑨-|
②③④⑤ |⑩-⑪-|

口⑪⑧口
⑩口口⑩
⑨口⑪口
口口口口
70
④⑤⑥⑦ |--①-|
⑧③⑨口 |--②-|
③⑧⑨② |③---④⑤⑥⑦|
①口②① |⑧-⑨-|
71
⑦⑥⑤④ |--①-|
⑨口⑧① |--②-|
②⑨口⑧ |③---④⑤⑥⑦|
③②③① |⑧-⑨-|
72
口口口口 |①---②③④⑤|
口①口⑥ |⑥-⑦-|
③口④口 |⑧-⑨-|
口⑤⑦② |⑩⑪⑫⑬|

口⑫口⑪
⑩口口口
口口口⑨
⑧口口⑬
73
口口②口 |①---|
口①②⑦ |②-③-|
⑥③⑤口 |④-⑤-|
⑥④②⑦ |⑥-⑦-|
74
口②口① |①-②-|
②口③口 |--③-|
口口口③ |④---⑤⑥⑦⑧|
口口口口 |⑨-⑩-|

④口口⑩
口⑨口口
⑨④⑩口
⑤⑥⑦⑧
75
③①④⑨ |①-②-|
②⑩④② |--③-|
⑩③口⑨ |④---⑤⑥⑦⑧|
⑧⑦⑥⑤ |⑨-⑩-|
76
②①④⑧ |--①-|
⑤⑨⑩② |--②-|
⑦③①⑥ |③④⑤⑥|
口口口口 |⑦⑧⑨⑩|
77
⑥①口口 |①---②③④⑤|
口口口口 |⑥-⑦-|
口⑦①口 |⑧-⑨-|
②③④⑤ |⑩-⑪-|

口⑪⑧口
⑩口口⑩
⑨口⑪口
口口口口
78
④⑤⑥⑦ |--①-|
⑧③⑨口 |--②-|
③⑧⑨② |③---④⑤⑥⑦|
①口②① |⑧-⑨-|
79
口口口口 |①-②-|
口③口② |--③-|
③口口口 |④-⑤-|
①①口口 |⑥-⑦-|

⑦口口⑤
口口口口
口⑥口④
⑦口口⑤
80
⑧②①口 |①-②-|
口口口③ |③-④-|
④口口口 |⑤-⑥-|
口⑥⑤⑦ |⑦-⑧-|
81
口口口口 |①---|
口口口口 |②③④-|
口①□< |⑤---|
口口口口 |⑥⑦⑧-|

口口口口
口口口口
>□①口
口口口口

口⑤⑤口
②①①⑥
③□□⑦
④∧∧⑧
82
①⑦⑧② |①-②-|
⑪11⑥ |③-④-|
⑤11⑩ |⑤⑥⑦⑧|
⑨③④⑫ |⑨⑩⑪⑫|
83
①⑦⑨③ |①-②-|
⑨④②⑦ |③-④-|
口①③口 |⑤-⑥⑦|
⑥⑤⑤⑧ |-⑧⑨-|
84
②口口② |①--②|
口口①口 |--③-|
②①口② |-④--|
口③③口 |⑤-⑥-|

口④⑤口
口口口口
口⑥⑥口
④口口⑤
85
①⑤口① |①-②-|
⑦②③⑥ |③-④-|
①⑧口① |⑤-⑥-|
⑤④口口 |⑦-⑧-|
86
⑤④①口 |①-②-|
口②⑥口 |③-④-|
⑦口③⑧ |⑤-⑥-|
口⑤口① |⑦-⑧-|
87
口⑤②① |①-②③|
⑤口口② |-④⑤-|
口③④口 |⑥⑦-⑧|
③口①④ |⑨⑩⑪⑫|

⑦口⑫⑩
口⑦⑥口
⑨口口⑧
口⑥⑪口
88
⑤⑧口口 |①-②③|
口⑥⑦① |④-⑤⑥|
⑩③④口 |⑦-⑧-|
②口口⑨ |⑨-⑩-|
89
□□□□ |----|
□□□□ |----|
□□□□ |----|
□□□□ |----|


33
口口口口 |①②③④|
口①②□ |⑤-⑥-|
口④③口 |⑦-⑧⑨|
口口口口 |⑩-⑪-|

⑨⑦⑤⑧
⑦⑪□⑤
⑥□□⑩
⑪⑥⑩口
34
⑦口③口 |①-②-|
⑤⑦①□ |③-④-|
④②③⑥ |⑤-⑥-|
口⑤□① |⑦-⑧-|

□□□□
□□□⑧
□□□□
□□□⑧
35
⑨③口② |①-②-|
⑥口⑩⑧ |③-④-|
③①④□ |⑤⑥-⑦|
①⑦⑤口 |⑧-⑨⑩|
36
⑤③②□ |①--②|
口④□⑥ |--③-|
⑦①④口 |④---|
③口⑧② |⑤⑥⑦⑧|
最終更新:2022年08月29日 04:35